Today is a free download without charge Download

Смурфики 2 / The Smurfs 2 (Раджа Госнелл)[2013.,Мультфильм, Фэнтези, Комедия, Семейный] DVDScr [Line]

Reply to topic
 
Author
Message

sashau ®

Gender:

Longevity: 9 years 5 months

Posts: 3497

Торрент-статистика

Post 05-Oct-2013 15:47

[Quote]

Смурфики 2 / The Smurfs 2 r«Увидеть Париж и... осмурфеть!»- Год выпуска: 2013
Производство: США / Columbia Pictures, Sony Pictures Animation
Жанр: Мультфильм, Фэнтези, Комедия, Семейный
Перевод: Дублированный (Чистый звук)
Язык субтитров: Отсутствуют
Дата мировой премьеры: 603191
Дата российской премьеры: 1 августа 2013, «WDSSPR»
Дата украинской премьеры: 1 августа 2013, «B&H Film Distribution Company»
Дата выхода DVD / Blu-Ray релиза: 18 ноября 2013, «Columbia/Sony»
Режиссер: Раджа Госнелл
Продюсер: Джордан Кернер, Беннита Аллен, Рафаэль Бенолье
Актеры: Хэнк Азария, Нил Патрик Харрис, Брендан Глисон, Джейма Мейс, Джонатан Уинтерс, Кэти Перри, Кристина Риччи, Дж.Б. Смув, Джордж Лопес, Антон Ельчин
Описание фильма:
Гаргамел создаёт Хакуса и Векси, как две капли воды похожую на смурфиков злобную парочку, надеясь всё-таки обрести магическую силу. Когда он узнаёт, что лишь настоящий смурф может дать ему то, что он хочет, и лишь Смурфетта способна превратить Хакуса и Векси в настоящих смурфов, Гаргамел похищает Смурфетту и берёт её с собой в Париж, планируя сделать её своей прислужницей. Но смурфики — Папа, Растяпа, Смельчак, Ворчун, Красавчик, Благоразумник — и их друзья из Нью-Йорка этого так не оставят. Тем более что к ним присоединился новорождённый Голубчик.

Продолжительность: 01:40:42
Качество видео: DVDScr
Примечание: присутствует китаиский хардсаб (только на надписи)
Видеокодек: Xvid
Битрейт видео: ~840 Kbit/s
Размер кадра: 640 x 320
Аудиокодек: AC3, 2.0
Битрейт аудио: 128 Kbit/s

MediaInfo

Общее
Полное имя : D:\Торренты\Смурфики 2.2013.DVDScr.avi
Формат : AVI
Формат/Информация : Audio Video Interleave
Размер файла : 702 Мбайт
Продолжительность : 1 ч. 40 м.
Общий поток : 975 Кбит/сек
Программа кодирования : VirtualDubMod 1.5.10.3 (build 2550/release)
Библиотека кодирования : VirtualDubMod build 2550/release
Видео
Идентификатор : 0
Формат : MPEG-4 Visual
Профиль формата : Advanced [email protected]
Параметр BVOP формата : 2
Параметр QPel формата : Нет
Параметр GMC формата : Без точки перехода
Параметр матрицы формата : Default (MPEG)
Идентификатор кодека : XVID
Идентификатор кодека/Подсказка : XviD
Продолжительность : 1 ч. 40 м.
Битрейт : 840 Кбит/сек
Ширина : 640 пикс.
Высота : 320 пикс.
Соотношение сторон : 2,000
Частота кадров : 18,000 кадр/сек
Цветовое пространство : YUV
Подвыборка цветности : 4:2:0
Битовая глубина : 8 бит
Тип развёртки : Прогрессивная
Метод сжатия : С потерями
Бит/(Пиксели*Кадры) : 0.228
Размер потока : 605 Мбайт (86%)
Библиотека кодирования : XviD 1.2.1 (UTC 2008-12-04)
Аудио
Идентификатор : 1
Формат : AC-3
Формат/Информация : Audio Coding 3
Расширение режима : CM (complete main)
Идентификатор кодека : 2000
Продолжительность : 1 ч. 40 м.
Вид битрейта : Постоянный
Битрейт : 128 Кбит/сек
Каналы : 2 канала
Расположение каналов : Front: L R
Частота : 48,0 КГц
Битовая глубина : 16 бит
Метод сжатия : С потерями
Размер потока : 92,2 Мбайт (13%)
Выравнивание : Разделение по промежуткам
Продолжительность промежутка : 56 мс. (1,00 видеокадр)
Время предзагрузки промежутка : 500 ms
Скриншоты:
         
         
Other forum [Profile] [PM]
Display posts from previous:    
Reply to topic

The time now is: Today 02:56

All times are GMT + 3 Hours



You cannot post new topics in this forum
You cannot reply to topics in this forum
You cannot edit your posts in this forum
You cannot delete your posts in this forum
You cannot vote in polls in this forum
You cannot attach files in this forum
You cannot download files in this forum