Today is a free download without charge Download

Лара Крофт: Расхитительница гробниц (Дилогия) / Lara Croft: Tomb Raider (Diology) (Саймон Уэст / Simon West // Ян де Бонт / Jan de Bont) [2001, 2003 г., боевик, триллер, фэнтези, приключения, BDRip] 1080p

Reply to topic
 
Author
Message

Delia ®

Gender:

Longevity: 9 years 6 months

Posts: 1821

Торрент-статистика

Post 08-Oct-2011 14:11

[Quote]

Лара Крофт: Расхитительница гробниц (Дилогия) / Lara Croft: Tomb Raider (Diology) (2001, 2003) BDRip- Русское название: Лара Крофт: Расхитительница гробниц (Дилогия)
Оригинальное название: Lara Croft: Tomb Raider (Diology)
Год выпуска: 2001, 2003
Жанр: Боевик, Фэнтези, Приключения
Страна: США , Германия , Япония , Великобритания
Режиссер: Саймон Уэст, Ян де Бонт
Продолжительность: | 01:40:31 | 01:58:18 |
Перевод: Дублированный
Качество: BDRip

Лара Крофт: Расхитительница гробниц / Lara Croft: Tomb Raider (2001)

Лара Крофт: Расхитительница гробниц / Lara Croft: Tomb Raider (2001) BDRip«The Biggest Adventure Begins 2001»- Русское название: Лара Крофт: Расхитительница гробниц
Оригинальное название: Lara Croft: Tomb Raider
Год выпуска: 2001
Страна: США , Германия , Япония , Великобритания
Жанр: Боевик, Фэнтези, Приключения-Описание фильма:
Она — само совершенство! На нашей планете нет женщины, которая могла бы сравниться с ней. Она — божественно прекрасна, невероятно умна и потрясающе отважна. Она владеет всеми видами рукопашного боя, изумительно стреляет из любых видов оружия и способна выжить в самых экстремальных условиях.
Эта девушка — дочь лорда. Ее имя — леди Лара Крофт. И пусть трепещут злодеи, которые попытаются встать у нее на пути…-Режиссер: Саймон Уэст
В ролях: Анджелина Джоли, Джон Войт, Айэйн Глен, Ноа Тейлор, Дэниэл Крэйг, Ричард Джонсон, Крис Барри, Джулиан Райнд-Татт, Лесли Филлипс, Роберт Филлипс-Продолжительность: 01:40:31
Перевод: Профессиональный (полное дублирование)


Рейтинг PG-13 - Детям до 13 лет просмотр не желателен
Дата мировой премьеры: 11 июня 2001
Дата премьеры в (РФ): 30 июня 2001, «Ист-Вест»
Дата выхода DVD релиза: 9 ноября 2010, «Юниверсал Пикчерс Рус»-

Знаете ли Вы, что...

* Пистолеты Лары в фильме — Heckler & Koch USP Match.
* В 1998 году Брент Фридман написал не увидевший свет сценарий «Лары Крофт: Расхитительницы гробниц». Одной из возможных причин стал грандиозный провал годом ранее в прокате фильма «Смертельная битва 2: Истребление», где Фридман был одним из авторов сценария.
* Лорд Крофт, отец Лары, первоначально имел имя Хеншингли (англ. Henshingly), но поменял его на Ричард в более поздних играх.
* Часть фильма была снята в Ангкоре, Камбоджа. Это первый с 1964 года (после «Лорда Джима») западный фильм со съёмками в этой стране.
* Внешний вид усадьбы Лары — «Hatfield House», огромное имение в графстве Хартфордшир, Англия.
* Для правдоподобности актёры в фильме говорят с неродным для них акцентом: американка Анджелина Джоли (Лара Крофт) — с английским, англичанин Дэниэл Крэйг (Алекс Уэст) — с американским, Йен Глен (Манфред Пауэлл), шотландец — с английским акцентом.
* Буддистская церемония, в которой принимает участие Лара (после сцены телефонного разговора с Пауэллом из Камбоджы), показана по-настоящему, и не является постановочной.
* Когда Лара звонит Брайсу из Камбоджи, он смотрит на остановленный кадр из детского анимационного сериала BBC под названием «The Clangers», который показывался по телевидению с 1969 по 1974 год.
* На хит U2 «Elevation» из саундтрека фильма в дальнейшем был снят видеоклип на тему «Расхитительницы гробниц», музыканты даже захотели пригласить для съёмок в нём Анджелину Джоли.
* Планеты, показанные в различных ракурсах, иллюстрируют приближение Парада планет без соблюдения реального масштаба.
* Хотя в фильме год не указывается, реальный Парад планет произошёл 3 мая 2000 года, примерно за год до выпуска фильма. Заметим, что в Расхитительнице гробниц Соединение начинается 15 мая.
* Успех фильма о Ларе Крофт сподвиг Land Rover на выпуск особой партии из 250 автомобилей Defender Tomb Raider LE. Все они по внешнему и внутреннему дизайну не отличались от автомобиля, на котором лихачила в фильме Анджелина Джоли.
-Качество: BDRip
Формат: MKV
Видео кодек: MPEG-4 AVC/H.264
Аудио кодек: AC3
Видео: 1920x804, 23.976 fps, ~17 mb/s
Аудио 1: Русский, AC3, 448 kbps, 6 каналов, 16 bit, (L, C, R, l, r) + LFE |Дублированный|
Аудио 2: Английский, DTS, 1510 kbps, 6 каналов, 24 bit, (L, C, R, l, r) + LFE |Оригинал|
Аудио 3: Английский, Vorbis, 96 kbps, 2 канала |Комментарий|
Субтитры:Русские(надписи), Русские(полные), Английские, Английские(SDH), Английские(комментарий) |UTF-8|

MediaInfo

Общее
Уникальный идентификатор : 193422021326228970202310201344336412331 (0x9183B9ED5452DCA88FD2FAF05D2D3EAB)
Полное имя : X:\Фильмы 3\Лара Крофт Расхитительница гробниц\Лара Крофт Расхитительница гробниц.mkv
Формат : Matroska
Версия формата : Version 2
Размер файла : 13,4 Гбайт
Продолжительность : 1 ч. 40 м.
Общий поток : 19,1 Мбит/сек
Название фильма : Lara Croft: Tomb Raider (2001) 1080p BDRip-Panda
Дата кодирования : UTC 2009-12-15 16:57:53
Программа кодирования : mkvmerge v2.9.9 ('Tutu') built on Nov 25 2009 21:13:32
Библиотека кодирования : libebml v0.7.9 + libmatroska v0.8.1
Видео
Идентификатор : 1
Формат : AVC
Формат/Информация : Advanced Video Codec
Профиль формата : [email protected]
Параметр CABAC формата : Да
Параметр ReFrames формата : 5 кадров
Идентификатор кодека : V_MPEG4/ISO/AVC
Продолжительность : 1 ч. 40 м.
Битрейт : 17,0 Мбит/сек
Ширина : 1920 пикс.
Высота : 804 пикс.
Соотношение сторон : 2,40:1
Частота кадров : 23,976 кадр/сек
Цветовое пространство : YUV
Подвыборка цветности : 4:2:0
Битовая глубина : 8 бит
Тип развёртки : Прогрессивная
Бит/(Пиксели*Кадры) : 0.459
Размер потока : 11,7 Гбайт (87%)
Заголовок : Lara Croft: Tomb Raider (2001) 1080p BDRip-HDv0T
Библиотека кодирования : x264 core 79 r1347M 5ddd61b
Настройки программы : cabac=1 / ref=5 / deblock=1:-2:-1 / analyse=0x3:0x113 / me=umh / subme=9 / psy=1 / psy_rd=1.1:0.0 / mixed_ref=1 / me_range=24 / chroma_me=0 / trellis=2 / 8x8dct=1 / cqm=0 / deadzone=21,11 / chroma_qp_offset=-2 / threads=3 / nr=0 / decimate=1 / mbaff=0 / constrained_intra=0 / bframes=3 / b_pyramid=0 / b_adapt=2 / b_bias=0 / direct=3 / wpredb=1 / wpredp=2 / keyint=250 / keyint_min=25 / scenecut=40 / rc_lookahead=40 / rc=2pass / mbtree=1 / bitrate=17000 / ratetol=1.0 / qcomp=0.60 / qpmin=10 / qpmax=51 / qpstep=4 / cplxblur=20.0 / qblur=0.5 / ip_ratio=1.40 / aq=2:0.90 / pulldown=0 / nal_hrd=0
Язык : English
Аудио #1
Идентификатор : 2
Формат : AC-3
Формат/Информация : Audio Coding 3
Расширение режима : CM (complete main)
Идентификатор кодека : A_AC3
Продолжительность : 1 ч. 40 м.
Вид битрейта : Постоянный
Битрейт : 448 Кбит/сек
Каналы : 6 каналов
Расположение каналов : Front: L C R, Side: L R, LFE
Частота : 48,0 КГц
Битовая глубина : 16 бит
Метод сжатия : С потерями
Размер потока : 322 Мбайт (2%)
Заголовок : Russian Dub AC3 5.1 @ 448 kbps
Язык : Russian
Аудио #2
Идентификатор : 3
Формат : DTS
Формат/Информация : Digital Theater Systems
Идентификатор кодека : A_DTS
Продолжительность : 1 ч. 40 м.
Вид битрейта : Постоянный
Битрейт : 1510 Кбит/сек
Каналы : 6 каналов
Расположение каналов : Front: L C R, Side: L R, LFE
Частота : 48,0 КГц
Битовая глубина : 24 бит
Метод сжатия : С потерями
Размер потока : 1,06 Гбайт (8%)
Заголовок : English DTS 5.1 @ 1536 kbps
Язык : English
Аудио #3
Идентификатор : 4
Формат : Vorbis
Параметр Floor формата : 1
Идентификатор кодека : A_VORBIS
Продолжительность : 1 ч. 40 м.
Вид битрейта : Переменный
Битрейт : 96,0 Кбит/сек
Каналы : 2 канала
Частота : 48,0 КГц
Метод сжатия : С потерями
Размер потока : 69,0 Мбайт (1%)
Заголовок : English commentary Vorbis 2.0 @ 96 kbps
Библиотека кодирования : aoTuV b5c (UTC 2008-12-15)
Язык : English
Текст #1
Идентификатор : 5
Формат : UTF-8
Идентификатор кодека : S_TEXT/UTF8
Идентификатор кодека/Информация : UTF-8 Plain Text
Заголовок : Russian forced
Язык : Russian
Текст #2
Идентификатор : 6
Формат : UTF-8
Идентификатор кодека : S_TEXT/UTF8
Идентификатор кодека/Информация : UTF-8 Plain Text
Заголовок : Russian
Язык : Russian
Текст #3
Идентификатор : 7
Формат : UTF-8
Идентификатор кодека : S_TEXT/UTF8
Идентификатор кодека/Информация : UTF-8 Plain Text
Заголовок : English
Язык : English
Текст #4
Идентификатор : 8
Формат : UTF-8
Идентификатор кодека : S_TEXT/UTF8
Идентификатор кодека/Информация : UTF-8 Plain Text
Заголовок : English SDH
Язык : English
Текст #5
Идентификатор : 9
Формат : UTF-8
Идентификатор кодека : S_TEXT/UTF8
Идентификатор кодека/Информация : UTF-8 Plain Text
Заголовок : English commentary
Язык : English
Меню
00:00:00.000 : en:00:00:00.000
00:07:21.858 : en:00:07:21.858
00:15:03.402 : en:00:15:03.402
00:23:15.394 : en:00:23:15.394
00:34:44.708 : en:00:34:44.708
00:43:09.587 : en:00:43:09.587
00:50:02.875 : en:00:50:02.875
00:59:45.165 : en:00:59:45.165
01:07:52.694 : en:01:07:52.694
01:15:57.887 : en:01:15:57.887
01:22:31.321 : en:01:22:31.321
01:31:21.851 : en:01:31:21.851
Скриншоты:        
       

Лара Крофт: Расхитительница гробниц 2 - Колыбель жизни / Lara Croft Tomb Raider: The Cradle of Life (2003)

Лара Крофт: Расхитительница гробниц 2 - Колыбель жизни / Lara Croft Tomb Raider: The Cradle of Life (2003) BDRip- Русское название: Лара Крофт: Расхитительница гробниц 2 - Колыбель жизни
Оригинальное название: Lara Croft Tomb Raider: The Cradle of Life
Год выпуска: 2003
Страна: США , Германия , Япония , Великобритания
Жанр: Боевик, Фэнтези, Приключения-Описание фильма:
Во второй серии приключений прекрасной расхитительницы гробниц Лары Крофт география действия становится ещё обширней и экзотичней. Ларе предстоит побывать в Греции, Кении, Танзании, Гонконге и Китае, и, разумеется, не для того, чтобы оценить местные красоты.
Она будет противостоять злодею-интеллектуалу Чену Ло, возглавляющему китайский преступный синдикат. Ло, искусный бизнесмен и хладнокровный убийца, замыслил украсть мифический Ящик Пандоры из ушедшего под воду храма, чтобы использовать его как оружие Судного дня…-Режиссер: Ян де Бонт
В ролях: Анджелина Джоли, Джерард Батлер, Киаран Хиндс, Крис Барри, Ноа Тейлор, Джимон Хунсу, Тиль Швайгер, Саймон Ям, Теренс Йин, Даниэль Кальтаджироне-Продолжительность: 01:58:18
Перевод: Профессиональный (полное дублирование)


Рейтинг PG-13 - Детям до 13 лет просмотр не желателен
Дата мировой премьеры: 21 июля 2003
Дата премьеры в (РФ): 7 августа 2003, «Ист-Вест»
Дата выхода DVD релиза: 9 ноября 2010, «Юниверсал Пикчерс Рус»-

Знаете ли Вы, что...

* Фильм был запрещён к показу в Китае за то, что нанёс значительный ущерб репутации страны, показав её в состоянии полного хаоса и наводнённую многочисленными тайными обществами.
* Один из каскадеров, дублёров Анджелины Джоли, был мужчиной
* Одна из ролей в фильме могла достаться Робсону Грину.
* Сцена, в которой Лара Крофт со своим партнёром прыгают с вершины здания, одетые в «летающие костюмы», была снята с участием двух каскадёров, занимавшихся разработкой таких костюмов. Всё было сделано без применения компьютерных спецэффектов, страховочных верёвок, сетей безопасности и прочего используемого в таких случаях специального снаряжения.
* Единственным актёром или актрисой в фильме, родившимся в Америке, была сама Анджелина Джоли.
* Когда картина вышла на экраны, Анджелина Джоли публично заявляла о своём нежелании в третий раз к этому персонажу. Несмотря на это определённая подготовительная работа со стороны киностудии всё же шла и была свернута лишь в начале 2004 года, когда окончательно стало ясно, что фильм не оправдал ожиданий.
* В одной из сцен фильма Джон Рейсс заражает пассажиров своего частного самолёта смертельным вирусом Эбола. В качестве вакцины-противоядия показаны прозрачные капсулы с чёрными пилюлями внутри, но в реальности это китайское гомеопатическое средство на травах, принимаемое при расстройстве желудка.
* Британский актёр Макс Райан пробовался на роль Терри Шеридана.
* В немецкой версии фильма Тиль Швайгер дублировал самого себя в роли Шона.
* Съёмочный период: 27 августа 2002 года – 19 марта 2003 года.
-Качество: BDRip
Формат: MKV
Видео кодек: MPEG-4 AVC/H.264
Аудио кодек: AC3
Видео: 1920x820, 23.976 fps, ~13 mb/s
Аудио 1: Русский, AC3, 448 kbps, 6 каналов, 16 bit, (L, C, R, l, r) + LFE |Дублированный|
Аудио 2: Английский, DTS, 1510 kbps, 6 каналов, 24 bit, (L, C, R, l, r) + LFE |Оригинал|
Субтитры: Русские (2 вида), Английские,|UTF-8|

MediaInfo

Общее
Уникальный идентификатор : 200590366372016658714689637420586968305 (0x96E84C9FEAE0FBBC9277AF0A4A0F24F1)
Полное имя : X:\Фильмы 3\Лара Крофт Расхитительница гробниц\Лара Крофт Расхитительница гробниц 2 - Колыбель жизни.mkv
Формат : Matroska
Версия формата : Version 2
Размер файла : 12,3 Гбайт
Продолжительность : 1 ч. 57 м.
Общий поток : 15,0 Мбит/сек
Название фильма : Lara Croft Tomb Raider: The Cradle of Life (2003) 1080p BDRip-Panda
Дата кодирования : UTC 2009-12-15 19:38:00
Программа кодирования : mkvmerge v2.9.9 ('Tutu') built on Nov 25 2009 21:13:32
Библиотека кодирования : libebml v0.7.9 + libmatroska v0.8.1
Видео
Идентификатор : 1
Формат : AVC
Формат/Информация : Advanced Video Codec
Профиль формата : [email protected]
Параметр CABAC формата : Да
Параметр ReFrames формата : 5 кадров
Идентификатор кодека : V_MPEG4/ISO/AVC
Продолжительность : 1 ч. 57 м.
Битрейт : 13,0 Мбит/сек
Ширина : 1920 пикс.
Высота : 820 пикс.
Соотношение сторон : 2,35:1
Частота кадров : 23,976 кадр/сек
Цветовое пространство : YUV
Подвыборка цветности : 4:2:0
Битовая глубина : 8 бит
Тип развёртки : Прогрессивная
Бит/(Пиксели*Кадры) : 0.344
Размер потока : 10,4 Гбайт (85%)
Заголовок : Lara Croft Tomb Raider: The Cradle of Life (2003) 1080p BDRip-HDv0T
Библиотека кодирования : x264 core 79 r1347M 5ddd61b
Настройки программы : cabac=1 / ref=5 / deblock=1:-2:-1 / analyse=0x3:0x113 / me=umh / subme=9 / psy=1 / psy_rd=0.7:0.3 / mixed_ref=1 / me_range=24 / chroma_me=0 / trellis=2 / 8x8dct=1 / cqm=0 / deadzone=21,11 / chroma_qp_offset=-5 / threads=3 / nr=0 / decimate=1 / mbaff=0 / constrained_intra=0 / bframes=3 / b_pyramid=0 / b_adapt=2 / b_bias=0 / direct=3 / wpredb=1 / wpredp=2 / keyint=250 / keyint_min=25 / scenecut=40 / rc_lookahead=40 / rc=2pass / mbtree=1 / bitrate=13000 / ratetol=1.0 / qcomp=0.60 / qpmin=10 / qpmax=51 / qpstep=4 / cplxblur=20.0 / qblur=0.5 / ip_ratio=1.40 / aq=1:0.90 / pulldown=0 / nal_hrd=0
Язык : English
Аудио #1
Идентификатор : 2
Формат : AC-3
Формат/Информация : Audio Coding 3
Расширение режима : CM (complete main)
Идентификатор кодека : A_AC3
Продолжительность : 1 ч. 57 м.
Вид битрейта : Постоянный
Битрейт : 448 Кбит/сек
Каналы : 6 каналов
Расположение каналов : Front: L C R, Side: L R, LFE
Частота : 48,0 КГц
Битовая глубина : 16 бит
Метод сжатия : С потерями
Размер потока : 376 Мбайт (3%)
Заголовок : Russian Dub AC3 5.1 @ 448 kbps
Язык : Russian
Аудио #2
Идентификатор : 3
Формат : DTS
Формат/Информация : Digital Theater Systems
Идентификатор кодека : A_DTS
Продолжительность : 1 ч. 57 м.
Вид битрейта : Постоянный
Битрейт : 1510 Кбит/сек
Каналы : 6 каналов
Расположение каналов : Front: L C R, Side: L R, LFE
Частота : 48,0 КГц
Битовая глубина : 16 бит
Метод сжатия : С потерями
Размер потока : 1,24 Гбайт (10%)
Заголовок : English DTS 5.1 @ 1536 kbps
Язык : English
Текст #1
Идентификатор : 4
Формат : UTF-8
Идентификатор кодека : S_TEXT/UTF8
Идентификатор кодека/Информация : UTF-8 Plain Text
Заголовок : Russian forced
Язык : Russian
Текст #2
Идентификатор : 5
Формат : UTF-8
Идентификатор кодека : S_TEXT/UTF8
Идентификатор кодека/Информация : UTF-8 Plain Text
Заголовок : Russian
Язык : Russian
Текст #3
Идентификатор : 6
Формат : UTF-8
Идентификатор кодека : S_TEXT/UTF8
Идентификатор кодека/Информация : UTF-8 Plain Text
Заголовок : English
Язык : English
Скриншоты:        
       

_________________
Человек – это канат, натянутый между животным и сверхчеловеком, – канат над пропастью.
В человеке ценно то, что он мост, а не цель. Фридрих Ницше
Other forum [Profile] [PM]
Display posts from previous:    
Reply to topic

The time now is: Today 11:21

All times are GMT + 3 Hours



You cannot post new topics in this forum
You cannot reply to topics in this forum
You cannot edit your posts in this forum
You cannot delete your posts in this forum
You cannot vote in polls in this forum
You cannot attach files in this forum
You cannot download files in this forum