Today is a free download without charge Download

Discovery: Беар Гриллс: По стопам выживших (1 сезон: 1 серия)/ Bear Grylls: Escape from hell (2013) IPTVRip (Обновлямая)

Reply to topic
 
Author
Message

UndegraundMen ®

Longevity: 7 years 7 months

Posts: 25145

Торрент-статистика

Post 03-Oct-2013 23:05

[Quote]

Discovery: Беар Гриллс: По стопам выживших (1 сезон: 1 серия)/ Bear Grylls: Escape from hell (2013) IPTVRip (Обновлямая)- Телекомпания: Discovery
Год выпуска: 2013
Жанр: Документальный, приключения
Описание:
Всемирно известный искатель приключений и специалист по выживанию рассказывает реальные истории выживания обычных людей, оказавшихся в экстремальной ситуации.
Продолжительность: 01:59:45
Качество видео: IPTVRip
Перевод: Одноголосый закадровый, профессиональный
Видеокодек: MPEG-4 AVC
Битрейт видео: ~1372 kbps
Размер кадра: 720x576 @ 768x576
Аудиокодек: MP3, 2 ch
Битрейт аудио: 128 kbps

MediaInfo

Код:
Общее
Идентификатор                            : 31460 (0x7AE4)
Полное имя                               : D:\1UP\Escape_from_hell_S01\Escape_from_hell_S01_E01.ts
Формат                                   : MPEG-TS
Размер файла                             : 650 Мбайт
Продолжительность                        : 59 м.
Режим общего битрейта                    : Переменный
Общий поток                              : 1521 Кбит/сек
Видео
Идентификатор                            : 69 (0x45)
Идентификатор меню                       : 1 (0x1)
Формат                                   : AVC
Формат/Информация                        : Advanced Video Codec
Профиль формата                          : [url=mailto:[email protected]][email protected][/url]
Параметр CABAC формата                   : Да
Параметр ReFrames формата                : 4 кадра
Идентификатор кодека                     : 27
Продолжительность                        : 59 м.
Битрейт                                  : 1372 Кбит/сек
Ширина                                   : 720 пикселей
Высота                                   : 576 пикселей
Соотношение сторон                       : 4:3
Частота кадров                           : 25,000 кадров/сек
Стандарт вещания                         : PAL
Цветовое пространство                    : YUV
Субдискретизация насыщенности            : 4:2:0
Битовая глубина                          : 8 бит
Тип развёртки                            : Прогрессивная
Бит/(Пиксели*Кадры)                      : 0.132
Размер потока                            : 563 Мбайт (87%)
Библиотека кодирования                   : x264 core 124 r2197 69a0443
Настройки программы                      : cabac=1 / ref=1 / deblock=1:0:0 / analyse=0x3:0x13 / me=dia / subme=1 / psy=1 / psy_rd=1.00:0.00 / mixed_ref=0 / me_range=16 / chroma_me=1 / trellis=0 / 8x8dct=1 / cqm=0 / deadzone=21,11 / fast_pskip=1 / chroma_qp_offset=0 / threads=12 / sliced_threads=0 / nr=0 / decimate=1 / interlaced=0 / bluray_compat=0 / constrained_intra=0 / bframes=3 / b_pyramid=2 / b_adapt=1 / b_bias=0 / direct=1 / weightb=1 / open_gop=0 / weightp=1 / keyint=60 / keyint_min=6 / scenecut=40 / intra_refresh=0 / rc_lookahead=0 / rc=cbr / mbtree=0 / bitrate=1372 / ratetol=1.0 / qcomp=0.60 / qpmin=10 / qpmax=51 / qpstep=4 / vbv_maxrate=1372 / vbv_bufsize=1500 / nal_hrd=none / ip_ratio=1.40 / pb_ratio=1.30 / aq=1:1.00
Аудио
Идентификатор                            : 68 (0x44)
Идентификатор меню                       : 1 (0x1)
Формат                                   : MPEG Audio
Версия формата                           : Version 1
Профиль формата                          : Layer 3
Режим                                    : Joint stereo
Расширение режима                        : MS Stereo
Идентификатор кодека                     : 3
Продолжительность                        : 59 м.
Вид битрейта                             : Постоянный
Битрейт                                  : 128 Кбит/сек
Каналы                                   : 2 канала
Частота                                  : 44,1 КГц
Метод сжатия                             : С потерями
Задержка видео                           : -181 мс.
Размер потока                            : 54,7 Мбайт (8%)
Язык                                     : Russian
Скриншоты: Время раздачи: C 8:00 до 23:00 мск. До первых пяти скачавших.
Other forum [Profile] [PM]
Display posts from previous:    
Reply to topic

The time now is: Today 09:51

All times are GMT + 3 Hours



You cannot post new topics in this forum
You cannot reply to topics in this forum
You cannot edit your posts in this forum
You cannot delete your posts in this forum
You cannot vote in polls in this forum
You cannot attach files in this forum
You cannot download files in this forum