Today is a free download without charge Download

Зайчишка заблудился (Владимир Гончаров) [1973 г., мультфильм, DVB]

Reply to topic
 
Author
Message

Omen ®

Longevity: 7 years 11 months

Posts: 181087

Торрент-статистика

Post 03-Oct-2013 17:40

[Quote]

Зайчишка заблудился
Жанр: мультфильм
Год выпуска: 1973
Продолжительность: 00:09:30
Режиссёр: Владимир Гончаров
Описание: мультфильм о приключениях зайчишки, который убежал из дома и заблудился в лесу ...
Доп. информация:

Релиз группы:
Трансляция спутникового канала: "Перец"
Качество видео: DVB
Формат видео: MPEG-PS
Видео: MPEG2 Video, 720x576, 25 fps, 4800 kbps
Аудио: MPEG Audio, 2 сh, 48 kHz, 192 kbps

MediaInfo

D:\Зайчишка заблудился. (1973)_DVB by SLuMeP.mpg
General
Complete name : D:\Зайчишка заблудился. (1973)_DVB by SLuMeP.mpg
Format : MPEG-PS
File size : 344 MiB
Duration : 9mn 30s
Overall bit rate mode : Variable
Overall bit rate : 5 060 Kbps
Video #224
ID : 224 (0xE0)
Format : MPEG Video
Format version : Version 2
Format profile : [email protected]
Format settings, BVOP : Yes
Format settings, Matrix : Custom
Format settings, GOP : M=3, N=36
Duration : 9mn 30s
Bit rate mode : Variable
Bit rate : 4 768 Kbps
Maximum bit rate : 15.0 Mbps
Width : 720 pixels
Height : 576 pixels
Display aspect ratio : 4:3
Frame rate : 25.000 fps
Standard : PAL
Color space : YUV
Chroma subsampling : 4:2:0
Bit depth : 8 bits
Scan type : Interlaced
Scan order : Top Field First
Compression mode : Lossy
Bits/(Pixel*Frame) : 0.460
Stream size : 324 MiB (94%)
Audio #192
ID : 192 (0xC0)
Format : MPEG Audio
Format version : Version 1
Format profile : Layer 2
Duration : 9mn 30s
Bit rate mode : Constant
Bit rate : 192 Kbps
Channel(s) : 2 channels
Sampling rate : 48.0 KHz
Compression mode : Lossy
Stream size : 13.1 MiB (4%)

Скриншоты

-Моя 150-я раздача - в разделе Отечественные мультфильмы
Other forum [Profile] [PM]
Display posts from previous:    
Reply to topic

The time now is: Today 01:31

All times are GMT + 3 Hours



You cannot post new topics in this forum
You cannot reply to topics in this forum
You cannot edit your posts in this forum
You cannot delete your posts in this forum
You cannot vote in polls in this forum
You cannot attach files in this forum
You cannot download files in this forum