Today is a free download without charge Download

Дом у озера / The Lake House (Алехандро Агрести) [2006 г., фэнтези, драма, мелодрама, BDRip 720p]

Reply to topic
 
Author
Message

Delia ®

Gender:

Longevity: 9 years 6 months

Posts: 1821

Торрент-статистика

Post 05-Oct-2011 19:16

[Quote]

Дом у озераThe Lake House Год выпуска: 2006
Страна: США, Австралия
Жанр: фэнтези, драма, мелодрама
Продолжительность: 01:38:33
Перевод: Дублированный
Режиссер: Алехандро Агрести
Продюссер: Даг Дэвисон, Рой Ли, Брюс Берман
Сценарий: Дэвид Обёрн, Юн-Йонг Ким, Джи-На Ео
Бюджет: $40 000 000
Премьера в мире: 16 июня 2006
В ролях: Киану Ривз, Сандра Баллок, Шоре Агдашлу, Кристофер Пламмер, Эбон Мосс-Бакрак, Уиллек Ван Аммелрой, Дилан Уолш, Линн Коллинз, Майк Бакарелла, Кевин Бреннан, Фрэнк Каети, Скотт Елиас, Лори Энн Гердиш, Майкл Эндрю Горман, Дженнифер Керн, Синтия Кэй МакУильямс, Индия Нейлан, Нора Ньюбро, Миа Парк, Пегги Родер, Джейсон Уэллс
Описание: Зима 2006 года. Ощутив необходимость изменить свою жизнь, доктор Кейт Форестер покидает свой необычный дом у озера в пригороде Иллинойса и устраивается на работу в чикагскую больницу. Единственное, о чем жалеет Кейт, так это о своем красивом доме с огромными окнами, который дарил ей душевное спокойствие. По дороге в город Кейт оставляет в почтовом ящике письмо, которое должен получить новый обитатель дома.
Когда же в него вселяется талантливый, но разочаровавшийся в жизни архитектор Алекс Уайлер, он видит этот дом совсем не таким, каким описала его в своем письме Кейт. Для Алекса это жилище имеет особое значение, поскольку оно было построено его отцом, знаменитым архитектором, который ради карьеры оставил свою семью. В итоге Алекс решает придать дому его первоначальный вид. Однажды странный случай заставляет Алекса написать ответное письмо Кейт; в процессе их переписки выясняется, что он живет в 2004 году, а она — в 2006-м. И лишь загадочный почтовый ящик служит неким соединяющим их мостиком.
В письмах они делятся друг с другом самым сокровенным, и постепенно между ними возникает заочный любовный роман. Испытывая неодолимое желание встретиться, Кейт и Алекс идут на все, чтобы добиться невозможного, рискуя при этом навсегда потерять друг друга...
Качество: BDRip 720p
Формат: MKV
Видео кодек: H.264
Аудио кодек: AC3
Видео: English, 5710 Кбит/сек, 1280*528 (2,40:1), в 23,976 кадр/сек, AVC ([email protected])
Аудио: Russian, 448 Кбит/сек, 48,0 КГц, 16 бит, 6 канала(ов), AC-3 | дубляж
Аудио:Ukrainian, 192 Кбит/сек, 48,0 КГц, 16 бит, 2 канала(ов), AC-3 | MVO
Субтитры:Russian, English (VobSub)

MI:

Код:
Общее
Уникальный идентификатор         : 234271219895689895071757304784067005696 (0xB03EFEE9819DCFC4BF47DB6138208D00)
Полное имя                       : E:\торрент\The Lake House (2006) ВDRip720p.mkv
Формат                           : Matroska
Размер файла                     : 4,38 Гбайт
Продолжительность                : 1 ч. 38 м.
Общий поток                      : 6357 Кбит/сек
Дата кодирования                 : UTC 2011-10-05 14:29:41
Программа кодирования            : mkvmerge v5.0.0 ('Die Wahre Liebe') built on Sep 25 2011 20:33:49
Библиотека кодирования           : libebml v1.2.2 + libmatroska v1.3.0
Видео
Идентификатор                    : 1
Формат                           : AVC
Формат/Информация                : Advanced Video Codec
Профиль формата                  : [email protected]
Параметр CABAC формата           : Да
Параметр ReFrames формата        : 9 кадры
Идентификатор кодека             : V_MPEG4/ISO/AVC
Продолжительность                : 1 ч. 38 м.
Битрейт                          : 5710 Кбит/сек
Ширина                           : 1280 пикс.
Высота                           : 528 пикс.
Соотношение сторон               : 2,40:1
Частота кадров                   : 23,976 кадр/сек
Цветовое пространство            : YUV
Подвыборка цветности             : 4:2:0
Битовая глубина                  : 8 бит
Тип развёртки                    : Прогрессивная
Бит/(Пиксели*Кадры)              : 0.352
Размер потока                    : 3,85 Гбайт (88%)
Библиотека кодирования           : x264 core 118 r2085 8a62835
Настройки программы              : cabac=1 / ref=9 / deblock=1:-2:-2 / analyse=0x3:0x133 / me=umh / subme=9 / psy=1 / psy_rd=1.00:0.15 / mixed_ref=1 / me_range=32 / chroma_me=1 / trellis=2 / 8x8dct=1 / cqm=0 / deadzone=21,11 / fast_pskip=0 / chroma_qp_offset=-3 / threads=6 / sliced_threads=0 / nr=0 / decimate=1 / interlaced=0 / bluray_compat=0 / constrained_intra=0 / bframes=6 / b_pyramid=2 / b_adapt=2 / b_bias=0 / direct=3 / weightb=1 / open_gop=0 / weightp=2 / keyint=250 / keyint_min=23 / scenecut=40 / intra_refresh=0 / rc_lookahead=60 / rc=2pass / mbtree=1 / bitrate=5710 / ratetol=1.0 / qcomp=0.80 / qpmin=10 / qpmax=51 / qpstep=4 / cplxblur=20.0 / qblur=0.5 / ip_ratio=1.40 / aq=1:1.00
Язык                             : English
Аудио #1
Идентификатор                    : 2
Формат                           : AC-3
Формат/Информация                : Audio Coding 3
Расширение режима                : CM (complete main)
Идентификатор кодека             : A_AC3
Продолжительность                : 1 ч. 38 м.
Вид битрейта                     : Постоянный
Битрейт                          : 448 Кбит/сек
Канал(ы)                         : 6 канала(ов)
Расположение каналов             : Front: L C R, Side: L R, LFE
Частота                          : 48,0 КГц
Битовая глубина                  : 16 бит
Метод сжатия                     : С потерями
Задержка видео                   : 3 мс.
Размер потока                    : 316 Мбайт (7%)
Язык                             : Russian
Аудио #2
Идентификатор                    : 3
Формат                           : AC-3
Формат/Информация                : Audio Coding 3
Расширение режима                : CM (complete main)
Идентификатор кодека             : A_AC3
Продолжительность                : 1 ч. 38 м.
Вид битрейта                     : Постоянный
Битрейт                          : 192 Кбит/сек
Канал(ы)                         : 2 канала(ов)
Расположение каналов             : Front: L R
Частота                          : 48,0 КГц
Битовая глубина                  : 16 бит
Метод сжатия                     : С потерями
Задержка видео                   : 3 мс.
Размер потока                    : 135 Мбайт (3%)
Язык                             : Ukrainian
Текст #1
Идентификатор                    : 4
Формат                           : VobSub
Режим смешивания                 : zlib
Идентификатор кодека             : S_VOBSUB
Идентификатор кодека/Информация  : The same subtitle format used on DVDs
Язык                             : Russian
Текст #2
Идентификатор                    : 5
Формат                           : VobSub
Режим смешивания                 : zlib
Идентификатор кодека             : S_VOBSUB
Идентификатор кодека/Информация  : The same subtitle format used on DVDs
Язык                             : English
Меню
00:00:00.000                     : en:Chapter 01
00:03:35.380                     : en:Chapter 02
00:07:38.290                     : en:Chapter 03
00:13:18.130                     : en:Chapter 04
00:17:17.202                     : en:Chapter 05
00:23:39.416                     : en:Chapter 06
00:26:58.449                     : en:Chapter 07
00:32:44.629                     : en:Chapter 08
00:36:40.364                     : en:Chapter 09
00:40:25.422                     : en:Chapter 10
00:45:45.742                     : en:Chapter 11
00:50:27.858                     : en:Chapter 12
00:59:24.727                     : en:Chapter 13
01:03:21.296                     : en:Chapter 14
01:09:23.993                     : en:Chapter 15
01:13:14.890                     : en:Chapter 16
01:15:48.542                     : en:Chapter 17
01:20:21.483                     : en:Chapter 18
01:24:50.752                     : en:Chapter 19
01:28:11.119                     : en:Chapter 20
01:35:03.531                     : en:Chapter 21
01:38:33.115                     : en:Chapter 22

Скриншоты

       
       

_________________
Человек – это канат, натянутый между животным и сверхчеловеком, – канат над пропастью.
В человеке ценно то, что он мост, а не цель. Фридрих Ницше
Other forum [Profile] [PM]
Display posts from previous:    
Reply to topic

The time now is: Today 18:02

All times are GMT + 3 Hours



You cannot post new topics in this forum
You cannot reply to topics in this forum
You cannot edit your posts in this forum
You cannot delete your posts in this forum
You cannot vote in polls in this forum
You cannot attach files in this forum
You cannot download files in this forum