Today is a free download without charge Download

Подари мне немного тепла (Илья Максимов) [2013, Россия, Мелодрама, HDTV 1080i]

Reply to topic
 
Author
Message

Omen ®

Longevity: 8 years 10 months

Posts: 181086

Торрент-статистика

Post 03-Oct-2013 01:04

[Quote]

Подари мне немного тепла
Страна: Россия
Жанр: Мелодрама
Год выпуска: 2013
Продолжительность: 01:28:17
Перевод: Не требуется
Cубтитры: нет
Режиссер: Илья Максимов
В ролях: Светлана Иванова, Сергей Мухин, Илья Шакунов, Алена Спивак, Олеся Остапенко, Алина Бабак и другие.
Описание: Молодая работница хлебозавода мечтает родить ребенка, но боится повторить поступок своей матери, бросившей детей ради чужого мужчины. Встреча с любимым человеком дает ей возможность забыть о своем страхе и обрести надежду на счастье. Но гибель любимого разрушает ее планы. Кто и как вернет ей надежду?
Сэмпл: http://multi-up.com/908157
Доп. информация: Релиз -

Рип чистый. Без посторонних надписей. Выкладывается как есть.
Качество: HDTV 1080i
Контейнер: TS
Видео кодек: H.264
Аудио кодек: MP3
Видео: 1920x1080 (16:9) 25.000 fps 8 145 Kbps, 0.157 bit/pixel
Аудио: MPEG Audio 48000Hz stereo 192 Кбит/сек

MediaInfo

General
ID : 1 (0x1)
Complete name : D:\Выкладка\Подари мне немного тепла (2013, Мелодрама, HDTV 1080i) (MYDIMKA).ts
Format : MPEG-TS
File size : 5.20 GiB
Duration : 1h 28mn
Overall bit rate mode : Variable
Overall bit rate : 8 439 Kbps
Video
ID : 2911 (0xB5F)
Menu ID : 1 (0x1)
Format : AVC
Format/Info : Advanced Video Codec
Format profile : [email protected]
Format settings, CABAC : Yes
Format settings, ReFrames : 3 frames
Codec ID : 27
Duration : 1h 28mn
Bit rate : 7 828 Kbps
Width : 1 920 pixels
Height : 1 080 pixels
Display aspect ratio : 16:9
Frame rate : 25.000 fps
Color space : YUV
Chroma subsampling : 4:2:0
Bit depth : 8 bits
Scan type : MBAFF
Bits/(Pixel*Frame) : 0.151
Stream size : 4.83 GiB (93%)
Audio
ID : 2912 (0xB60)
Menu ID : 1 (0x1)
Format : MPEG Audio
Format version : Version 1
Format profile : Layer 2
Mode : Joint stereo
Mode extension : Intensity Stereo + MS Stereo
Codec ID : 3
Duration : 1h 28mn
Bit rate mode : Constant
Bit rate : 192 Kbps
Channel count : 2 channels
Sampling rate : 48.0 KHz
Compression mode : Lossy
Stream size : 121 MiB (2%)
Language : Russian

Скриншоты


Скриншот с названием фильма

Other forum [Profile] [PM]
Display posts from previous:    
Reply to topic

The time now is: Today 13:32

All times are GMT + 3 Hours



You cannot post new topics in this forum
You cannot reply to topics in this forum
You cannot edit your posts in this forum
You cannot delete your posts in this forum
You cannot vote in polls in this forum
You cannot attach files in this forum
You cannot download files in this forum