Today is a free download without charge Download

Имя Розы / Der Name der Rose (Жан-Жак Анно) [1986 г., триллер, драма, криминал, детектив, BDRip 720p]

Reply to topic
 
Author
Message

Delia ®

Gender:

Longevity: 9 years 6 months

Posts: 1821

Торрент-статистика

Post 05-Oct-2011 10:34

[Quote]

Имя РозыThe Name of the Rose | Der Name der Rose Год выпуска: 1986
Страна: Франция, Италия, Германия (ФРГ)
Жанр: триллер, драма, криминал, детектив
Продолжительность: 02:11:29
Перевод: Дублированный
Режиссер: Жан-Жак Анно
Продюссер: Франко Кристальди, Джэйк Эбертс, Бернд Айхингер
Сценарий: Эндрю Биркин, Жерар Браш, Ховард Франклин
Бюджет: $20 000 000
Премьера в мире: 24 сентября 1986
В ролях: Шон Коннери, Кристиан Слэйтер, Хельмут Квалтингер, Илья Баскин, Микаэль Лонсдаль, Фолькер Прехтель, Федор Шаляпин мл., Уильям Хикки, Михаэль Хабек, Урс Альтхаус
Описание: 1327 год. В обществе молодого послушника Адсо францисканский монах Вильям Баскервильский расследует серию трагических смертей монахов в бенедиктинском монастыре на севере Италии.За всеми этими смертями кроется страшная тайна, и вскоре Вильям убеждается, что ключ к раскрытию загадки лежит в обнаружении сурово охраняемого древнего манускрипта, который хранится в тайной библиотеке монастыря...
Качество: BDRip 720p
Формат: MKV
Видео кодек: H.264
Аудио кодек: AC3
Видео: English, 4183 Кбит/сек, 1280*720 (16:9), в 23,976 кадр/сек, AVC ([email protected])
Аудио: Russian, 384 Кбит/сек, 48,0 КГц, 16 бит, 6 канала(ов), AC-3 | дубляж советский
Аудио:English, 192 Кбит/сек, 48,0 КГц, 16 бит, 2 канала(ов), AC-3 | оригинал
Субтитры:Russian, English (srt)
Отдельно:
Russian,448 Кбит/сек, 48,0 КГц, 16 бит, 6 канала(ов), AC-3(AV. Ю.Сербин)
Russian,384 Кбит/сек, 48,0 КГц, 16 бит, 6 канала(ов), AC-3 (MVO .Киномания)
Russian,192 Кбит/сек, 48,0 КГц, 16 бит, 2 канала(ов), AC-3(MVO. OРТ )
Russian,192 Кбит/сек, 48,0 КГц, 16 бит, 2 канала(ов), AC-3 (MVO. TB3)

MI:

Код:
Общее
Уникальный идентификатор         : 194774982658630998589814824732983346794 (0x92884C1226E3BB769AD4FBC51680C66A)
Полное имя                       : E:\торрент\The Name Of The Rose(1986)BDRip720p\The Name Of The Rose(1986)BDRip720p .mkv
Формат                           : Matroska
Размер файла                     : 4,31 Гбайт
Продолжительность                : 2 ч. 11 м.
Общий поток                      : 4694 Кбит/сек
Дата кодирования                 : UTC 2011-10-05 06:51:26
Программа кодирования            : mkvmerge v5.0.0 ('Die Wahre Liebe') built on Sep 25 2011 20:33:49
Библиотека кодирования           : libebml v1.2.2 + libmatroska v1.3.0
Видео
Идентификатор                    : 1
Формат                           : AVC
Формат/Информация                : Advanced Video Codec
Профиль формата                  : [email protected]
Параметр CABAC формата           : Да
Параметр ReFrames формата        : 8 кадры
Идентификатор кодека             : V_MPEG4/ISO/AVC
Продолжительность                : 2 ч. 11 м.
Битрейт                          : 4183 Кбит/сек
Ширина                           : 1280 пикс.
Высота                           : 720 пикс.
Соотношение сторон               : 16:9
Частота кадров                   : 23,976 кадр/сек
Цветовое пространство            : YUV
Подвыборка цветности             : 4:2:0
Битовая глубина                  : 8 бит
Тип развёртки                    : Прогрессивная
Бит/(Пиксели*Кадры)              : 0.189
Размер потока                    : 3,76 Гбайт (87%)
Библиотека кодирования           : x264 core 118 r2085 8a62835
Настройки программы              : cabac=1 / ref=8 / deblock=1:-3:-3 / analyse=0x3:0x133 / me=umh / subme=9 / psy=1 / psy_rd=1.00:0.15 / mixed_ref=1 / me_range=32 / chroma_me=1 / trellis=2 / 8x8dct=1 / cqm=0 / deadzone=21,11 / fast_pskip=0 / chroma_qp_offset=-3 / threads=6 / sliced_threads=0 / nr=0 / decimate=1 / interlaced=0 / bluray_compat=0 / constrained_intra=0 / bframes=6 / b_pyramid=2 / b_adapt=2 / b_bias=0 / direct=3 / weightb=1 / open_gop=0 / weightp=2 / keyint=250 / keyint_min=23 / scenecut=40 / intra_refresh=0 / rc_lookahead=60 / rc=2pass / mbtree=1 / bitrate=4183 / ratetol=1.0 / qcomp=0.80 / qpmin=10 / qpmax=51 / qpstep=4 / cplxblur=20.0 / qblur=0.5 / ip_ratio=1.40 / aq=1:1.00
Язык                             : English
Аудио #1
Идентификатор                    : 2
Формат                           : AC-3
Формат/Информация                : Audio Coding 3
Расширение режима                : CM (complete main)
Идентификатор кодека             : A_AC3
Продолжительность                : 2 ч. 11 м.
Вид битрейта                     : Постоянный
Битрейт                          : 192 Кбит/сек
Канал(ы)                         : 2 канала(ов)
Расположение каналов             : Front: L R
Частота                          : 48,0 КГц
Битовая глубина                  : 16 бит
Метод сжатия                     : С потерями
Размер потока                    : 181 Мбайт (4%)
Язык                             : Russian
Аудио #2
Идентификатор                    : 3
Формат                           : AC-3
Формат/Информация                : Audio Coding 3
Расширение режима                : CM (complete main)
Идентификатор кодека             : A_AC3
Продолжительность                : 2 ч. 11 м.
Вид битрейта                     : Постоянный
Битрейт                          : 320 Кбит/сек
Канал(ы)                         : 6 канала(ов)
Расположение каналов             : Front: L C R, Side: L R, LFE
Частота                          : 48,0 КГц
Битовая глубина                  : 16 бит
Метод сжатия                     : С потерями
Размер потока                    : 301 Мбайт (7%)
Язык                             : English
Текст #1
Идентификатор                    : 4
Формат                           : UTF-8
Идентификатор кодека             : S_TEXT/UTF8
Идентификатор кодека/Информация  : UTF-8 Plain Text
Язык                             : Russian
Текст #2
Идентификатор                    : 5
Формат                           : UTF-8
Идентификатор кодека             : S_TEXT/UTF8
Идентификатор кодека/Информация  : UTF-8 Plain Text
Язык                             : English
Меню
00:00:00.000                     : en:Chapter 01
00:02:50.670                     : en:Chapter 02
00:06:14.874                     : en:Chapter 03
00:10:41.891                     : en:Chapter 04
00:15:10.200                     : en:Chapter 05
00:19:14.278                     : en:Chapter 06
00:22:11.955                     : en:Chapter 07
00:25:50.590                     : en:Chapter 08
00:31:13.246                     : en:Chapter 09
00:37:43.052                     : en:Chapter 10
00:42:35.135                     : en:Chapter 11
00:48:55.891                     : en:Chapter 12
00:52:12.629                     : en:Chapter 13
00:55:07.095                     : en:Chapter 14
00:57:41.541                     : en:Chapter 15
01:01:09.749                     : en:Chapter 16
01:06:04.877                     : en:Chapter 17
01:10:20.299                     : en:Chapter 18
01:14:46.857                     : en:Chapter 19
01:18:31.832                     : en:Chapter 20
01:22:59.015                     : en:Chapter 21
01:26:51.664                     : en:Chapter 22
01:30:35.304                     : en:Chapter 23
01:35:03.906                     : en:Chapter 24
01:38:15.014                     : en:Chapter 25
01:41:49.686                     : en:Chapter 26
01:46:53.448                     : en:Chapter 27
01:49:50.875                     : en:Chapter 28
01:54:14.806                     : en:Chapter 29
01:57:20.366                     : en:Chapter 30
02:01:09.679                     : en:Chapter 31
02:03:05.002                     : en:Chapter 32
02:08:06.261                     : en:Chapter 33
02:11:29.172                     : en:Chapter 34

Скриншоты

             

_________________
Человек – это канат, натянутый между животным и сверхчеловеком, – канат над пропастью.
В человеке ценно то, что он мост, а не цель. Фридрих Ницше


Last edited by Delia on 2011-10-05 11:57; edited 4 times in total
Other forum [Profile] [PM]
Display posts from previous:    
Reply to topic

The time now is: Today 18:27

All times are GMT + 3 Hours



You cannot post new topics in this forum
You cannot reply to topics in this forum
You cannot edit your posts in this forum
You cannot delete your posts in this forum
You cannot vote in polls in this forum
You cannot attach files in this forum
You cannot download files in this forum