Today is a free download without charge Download

Ледниковый период 4: Континентальный дрейф / Ice Age: Continental Drift (Стив Мартино, Майк Тёрмайер / Steve Martino, Mike Thurmeier) [2012 г., мультфильм, комедия, приключения, BDRemux 1080p] (Локализованный видеоряд) Dub + Ukr + Eng

Reply to topic
 
Author
Message

Omen ®

Longevity: 8 years

Posts: 181087

Торрент-статистика

Post 30-Sep-2013 23:57

[Quote]

P R E S E N T SЛедниковый период 4: Континентальный дрейф / Ice Age: Continental Drift- Страна: США
Жанр: мультфильм, комедия, приключения, семейный
Продолжительность: 01:27:45
Год выпуска: 2012
Перевод: Профессиональный (полное дублирование)
Субтитры: есть
Навигация по главам: есть (24 не именованных главы)-Режиссёр: Стив Мартино, Майк Тёрмайер / Steve Martino, Mike Thurmeier
Роли озвучивали: Рэй Романо, Джон Легуизамо, Куин Латифа, Дэнис Лири, Джош Пек, Питер Динклэйдж, Кеке Палмер, Дженнифер Лопез, Ник Фрост, Бен Глейб, Хезер Моррис, Шонн Уильям Скотт, Ванда Сайкес...
Роли дублировали: Степан Старчиков, Антон Комолов, Ольга Шелест, Александр Груздев, Илья Бледный, Иван Охлобыстин, Вероника Саркисова, Альбина Джанабаева, Александр Невский, Даниил Эльдаров, Полина Быстрицкая, Андрей Бархударов, Александра Назарова-| |-Описание: После приключений под землей прошло семь лет. Случился дрейф континентов. Главные герои мультфильма, отделённые от стада, вынуждены использовать айсберг в качестве плота. Они пересекают океан и попадают в неизвестные им ранее земли с экзотическими животными и пиратами, враждебно настроенными к ним. Скрэту удаётся получить свой жёлудь, но он перемещается в новые для него земли...-Доп. информация: BDRemux с локализованным (русскоязычным) видеорядом, сделан с Blu-Ray диска Ice Age: Continental Drift (2012) Blu-ray CEE 1080p AVC DTS 5.1, спасибо HDClub'у.
Отдельное спасибо xfiles за подготовку субтитров.
-Сэмпл/Sample || Зеркала (179.97 MB, 1 минута)-Качество: BDRemux
Формат: MKV
Видео: 1920x1080, 23,976 fps, ~19.4 Mbps avg, 0.390 bit/pixel
Аудио #1: Русский, 48.0 KHz, DTS, 6 ch, 768 Kbps, 24-bit - Дубляж | BD CEE
Аудио #2: Украинский, 48.0 KHz, AC3, 6 ch, 448 Kbps - Дубляж | BD CEE
Аудио #3: English, 48.0 KHz, DTS-HD MA 5.1, 3915 Kbps, 24-bit (DTS Core: 5.1, 48 kHz, 1509 kbps, 24-bit) - Original | BD CEE
Субтитры: Русские (BD CEE), Украинские (BD CEE), English, English (SDH)

MediaInfo

GeneralUnique ID : 243052087563799411651734147426448273403 (0xB6DA211CFBA3B79C9B31C32863636FFB)Complete name : Ice.Age.IV.2012.BDRemux.1080p.Rus.Video.mkvFormat : MatroskaFormat version : Version 2File size : 15.0 GiBDuration : 1h 27mnOverall bit rate mode : VariableOverall bit rate : 24.5 MbpsEncoded date : UTC 2012-10-26 20:19:41Writing application : mkvmerge v4.0.0 ('The Stars were mine') built on Jun 6 2010 16:18:42Writing library : libebml v1.0.0 + libmatroska v1.0.0
VideoID : 1Format : AVCFormat/Info : Advanced Video CodecFormat profile : [email protected] settings, CABAC : YesFormat settings, ReFrames : 4 framesCodec ID : V_MPEG4/ISO/AVCDuration : 1h 27mnBit rate mode : VariableBit rate : 19.4 MbpsMaximum bit rate : 32.0 MbpsWidth : 1 920 pixelsHeight : 1 080 pixelsDisplay aspect ratio : 16:9Frame rate : 23.976 fpsColor space : YUVChroma subsampling : 4:2:0Bit depth : 8 bitsScan type : ProgressiveBits/(Pixel*Frame) : 0.390Stream size : 11.9 GiB (87%)Title : NTSC, 1920x1080, Untached, ~19,4 Mbps, BDRemux - tRuAVC & Multfilmy [DFCbit]Language : RussianDefault : YesForced : No
Audio #1ID : 2Format : DTSFormat/Info : Digital Theater SystemsCodec ID : A_DTSDuration : 1h 27mnBit rate mode : ConstantBit rate : 755 KbpsChannel(s) : 6 channelsChannel positions : Front: L C R, Side: L R, LFESampling rate : 48.0 KHzBit depth : 24 bitsCompression mode : LossyStream size : 474 MiB (3%)Title : DTS, 6 ch, 48 kHz, 768 kbps, 24-bit, Dubbing [BD CEE]Language : RussianDefault : YesForced : No
Audio #2ID : 3Format : AC-3Format/Info : Audio Coding 3Mode extension : CM (complete main)Codec ID : A_AC3Duration : 1h 27mnBit rate mode : ConstantBit rate : 448 KbpsChannel(s) : 6 channelsChannel positions : Front: L C R, Side: L R, LFESampling rate : 48.0 KHzBit depth : 16 bitsCompression mode : LossyStream size : 281 MiB (2%)Title : AC3, 6 ch, 48 kHz, 448 kbps, Dubbing [BD CEE]Language : UkrainianDefault : NoForced : No
Audio #3ID : 4Format : DTSFormat/Info : Digital Theater SystemsFormat profile : MA / CoreCodec ID : A_DTSDuration : 1h 27mnBit rate mode : VariableBit rate : 1 561 Kbps / 1 510 KbpsChannel(s) : 6 channelsChannel positions : Front: L C R, Side: L R, LFESampling rate : 48.0 KHzBit depth : 24 bitsCompression mode : Lossless / LossyStream size : 2.39 GiB (16%)Title : DTS-HD MA 5.1, 48 kHz, 3915 Kbps, 24-bit (DTS Core: 5.1, 48 kHz, 1509 kbps, 24-bit), Original [BD CEE]Language : EnglishDefault : NoForced : No
Text #1ID : 5Format : UTF-8Codec ID : S_TEXT/UTF8Codec ID/Info : UTF-8 Plain TextTitle : SRT, Full [BD CEE]Language : RussianDefault : NoForced : No
Text #2ID : 6Format : UTF-8Codec ID : S_TEXT/UTF8Codec ID/Info : UTF-8 Plain TextTitle : SRT, Full [BD CEE]Language : UkrainianDefault : NoForced : No
Text #3ID : 7Format : UTF-8Codec ID : S_TEXT/UTF8Codec ID/Info : UTF-8 Plain TextTitle : SRT, Full [BD CEE]Language : EnglishDefault : NoForced : No
Text #4ID : 8Format : UTF-8Codec ID : S_TEXT/UTF8Codec ID/Info : UTF-8 Plain TextTitle : SRT, (SDH) [BD CEE]Language : EnglishDefault : NoForced : No
Menu00:00:00.000 : en:Chapter 100:03:25.038 : en:Chapter 200:05:08.225 : en:Chapter 300:09:34.407 : en:Chapter 400:13:09.705 : en:Chapter 500:15:56.330 : en:Chapter 600:18:23.644 : en:Chapter 700:22:24.718 : en:Chapter 800:25:57.556 : en:Chapter 900:29:18.965 : en:Chapter 1000:32:58.601 : en:Chapter 1100:36:15.381 : en:Chapter 1200:38:42.653 : en:Chapter 1300:43:49.710 : en:Chapter 1400:45:30.644 : en:Chapter 1500:49:39.977 : en:Chapter 1600:53:50.477 : en:Chapter 1700:57:23.857 : en:Chapter 1801:02:32.040 : en:Chapter 1901:08:09.335 : en:Chapter 2001:11:11.475 : en:Chapter 2101:13:15.641 : en:Chapter 2201:16:54.401 : en:Chapter 2301:19:24.634 : en:Chapter 24

Bitrate Viewer

Скриншоты

BDRemux

Other forum [Profile] [PM]

Dracula

Longevity: 7 years 1 month

Posts: 11396

Торрент-статистика

Post 01-Jan-2014 17:17 (after 3 months)

Топик был перенесен из форума Мультфильмы (HD) в форум Мультфильмы


Delia
 
Display posts from previous:    
Reply to topic

The time now is: Today 05:49

All times are GMT + 3 Hours



You cannot post new topics in this forum
You cannot reply to topics in this forum
You cannot edit your posts in this forum
You cannot delete your posts in this forum
You cannot vote in polls in this forum
You cannot attach files in this forum
You cannot download files in this forum