Today is a free download without charge Download

Koukaku Kidoutai 2.0 / Ghost in the Shell 2.0 / Призрак в доспехах 2.0 [2008, MV] HDRip 400p rus

Reply to topic
 
Author
Message

UndegraundMen ®

Longevity: 8 years 11 months

Posts: 25145

Торрент-статистика

Post 28-Sep-2013 11:12

[Quote]

Koukaku Kidoutai 2.0 / Ghost in the Shell 2.0 / Призрак в доспехах 2.0 (2008) HDRip
«The cyberpunk classic that inspired 'The Matrix', reworked for today!»
- Год выпуска: 2008
Производство: Япония, США
Жанр: Аниме, Мультфильм, Фантастика, Боевик, Драма, Криминал
Перевод: Двуголосый закадровый, профессиональный
Автор перевода: (П. Гланц и И. Королёва)
Субтитры: отсутствуют-Дата мировой премьеры: 12 июля 2008 (Япония)-Режиссер: Мамору Осии-Продюсеры: Мицухиса Исикава, Кен Мацумото, Энди Фрейн-Роли озвучивали: Ацуко Танака, Акио Ютсука, Коити Ямадера, Тэссё Гэнда, Масато Ямаучи, Синдзи Огава, Йошико Сакакибара, Казухиро Ямаджи, Шигеру Чиба, Маая Сакамото...-Описание:
• К 2029 году благодаря повсеместно распространившимся компьютерным сетям и кибер-технологиям практически все люди вживили себе разнообразные нейронные имплантанты. Но кибер-технологии принесли и новую опасность для человека: стал возможным так называемый «взлом мозга» и ряд других преступлений, связанный непосредственно с ними.
• Давно разыскиваемый хакер, которого прозвали Кукловодом, начинает вмешиваться в политику, и тогда «9-й Отдел» Министерства Общественной безопасности, оперотряд полиции, оснащённый по последнему слову техники, получает приказ расследовать это дело и остановить Кукловода. В погоне за ним возникает вопрос: что делает человека человеком и кто такой Кукловод в этом мире, где граница между человеком и машиной почти незаметна?-
Продолжительность: 01:23:21
Качество видео: HDRip
Видеокодек: Xvid
Битрейт видео: ~ 2038 Кбит/сек
Размер кадра: 720 x 400 (1.800) at 23.976 fps
Аудиокодек: AC3 5.1
Битрейт аудио: 448 Кбит/сек, 48,0 КГц

MediaInfo:

Код:
Полное имя                               : F:\Фильмы\Мульты\Призрак в доспехах 2.0  Kôkaku kidôtai 2.0  Ghost in the Shell 2.0\Prizrak.v.dospehah.2.0.2008.HDRip.NNM-CLUB.avi
Формат                                   : AVI
Формат/Информация                        : Audio Video Interleave
Размер файла                             : 1,45 Гбайт
Продолжительность                        : 1 ч. 23 м.
Общий поток                              : 2495 Кбит/сек
Название фильма                          : Призрак в доспехах 2.0 / Ghost in the Shell 2.0 (2008) BDRip
Режиссёр                                 : Orbit
Программа кодирования                    : VirtualDubMod 1.5.10.2 (build 2542/release)
Правообладатель                          : hqclub.net
Примечание                               : 05.06.2011
Видео
Идентификатор                            : 0
Формат                                   : MPEG-4 Visual
Профиль формата                          : Advanced [email protected]
Параметр BVOP формата                    : 1
Параметр QPel формата                    : Нет
Параметр GMC формата                     : Без точки перехода
Параметр матрицы формата                 : Выборочная
Идентификатор кодека                     : XVID
Идентификатор кодека/Подсказка           : XviD
Продолжительность                        : 1 ч. 23 м.
Битрейт                                  : 2038 Кбит/сек
Ширина                                   : 720 пикселей
Высота                                   : 400 пикселей
Соотношение сторон                       : 16:9
Частота кадров                           : 23,976 кадра/сек
Цветовое пространство                    : YUV
Субдискретизация насыщенности            : 4:2:0
Битовая глубина                          : 8 бит
Тип развёртки                            : Прогрессивная
Метод сжатия                             : С потерями
Бит/(Пиксели*Кадры)                      : 0.295
Размер потока                            : 1,19 Гбайт (82%)
Библиотека кодирования                   : XviD 63
Аудио
Идентификатор                            : 1
Формат                                   : AC-3
Формат/Информация                        : Audio Coding 3
Расширение режима                        : CM (complete main)
Параметр Endianness формата              : Big
Идентификатор кодека                     : 2000
Продолжительность                        : 1 ч. 23 м.
Вид битрейта                             : Постоянный
Битрейт                                  : 448 Кбит/сек
Каналы                                   : 6 каналов
Расположение каналов                     : Front: L C R, Side: L R, LFE
Частота                                  : 48,0 КГц
Битовая глубина                          : 16 бит
Метод сжатия                             : С потерями
Размер потока                            : 267 Мбайт (18%)
Выравнивание                             : Разделение по промежуткам
Продолжительность промежутка             : 42  мс. (1,00 видеокадр)
Время предзагрузки промежутка            : 500  мс.
Скриншоты:

         
         

-
Other forum [Profile] [PM]
Display posts from previous:    
Reply to topic

The time now is: Today 17:30

All times are GMT + 3 Hours



You cannot post new topics in this forum
You cannot reply to topics in this forum
You cannot edit your posts in this forum
You cannot delete your posts in this forum
You cannot vote in polls in this forum
You cannot attach files in this forum
You cannot download files in this forum