Today is a free download without charge Download

Большой Тылл / Suur Toll (Рейн Раамат / Rein Raamat) [1980, Экранизация эпоса, TeleSynch] [Русская версия] Dub

Reply to topic
 
Author
Message

Omen ®

Longevity: 7 years 11 months

Posts: 181087

Торрент-статистика

Post 27-Sep-2013 21:56

[Quote]

Большой Тылл / Suur Tõll
Страна: СССР/Эстония
Жанр: Экранизация эпоса
Продолжительность: 00:14:02
Год выпуска: 1980
Перевод: Профессиональный (дублированный)
Русские субтитры: нет
Режиссёр: Рейн Раамат
Описание: Экранизация эстонского эпоса о великане Тылле
Доп. информация: ВНИМАНИЕ данная раздача является русской версией мультфильма
Качество: TeleSynch
Формат: AVI
Видео: 720x576 (4:3) @ 768x576, 25.000 fps, MPEG-2 Video, ~5876 Kbps, 0.567 bits/pixel
Аудио: Русский, 48.0 KHz, AC3, 1 ch, 192 Kbps
Субтитры: нет

MedaInfo

GeneralComplete name : Большой Тылл (Талиннфильм) 1980.mpgFormat : MPEG-PSFile size : 621 MiBDuration : 14mn 1sOverall bit rate mode : VariableOverall bit rate : 6 191 Kbps
VideoID : 224 (0xE0)Format : MPEG VideoFormat version : Version 2Format profile : [email protected] settings, BVOP : YesFormat settings, Matrix : DefaultFormat settings, GOP : VariableDuration : 14mn 1sBit rate mode : VariableBit rate : 5 876 KbpsMaximum bit rate : 9 400 KbpsWidth : 720 pixelsHeight : 576 pixelsDisplay aspect ratio : 4:3Frame rate : 25.000 fpsStandard : PALColor space : YUVChroma subsampling : 4:2:0Bit depth : 8 bitsScan type : InterlacedScan order : Top Field FirstCompression mode : LossyBits/(Pixel*Frame) : 0.567Time code of first frame : 00:00:00:00Time code source : Group of pictures headerStream size : 590 MiB (95%)Color primaries : BT.601 PALTransfer characteristics : BT.470 System B, BT.470 System GMatrix coefficients : BT.601
AudioID : 189 (0xBD)-128 (0x80)Format : AC-3Format/Info : Audio Coding 3Mode extension : CM (complete main)Format settings, Endianness : BigMuxing mode : DVD-VideoDuration : 14mn 1sBit rate mode : ConstantBit rate : 192 KbpsChannel(s) : 1 channelChannel positions : Front: CSampling rate : 48.0 KHzBit depth : 16 bitsCompression mode : LossyStream size : 19.3 MiB (3%)

Скриншоты

Other forum [Profile] [PM]
Display posts from previous:    
Reply to topic

The time now is: Today 03:38

All times are GMT + 3 Hours



You cannot post new topics in this forum
You cannot reply to topics in this forum
You cannot edit your posts in this forum
You cannot delete your posts in this forum
You cannot vote in polls in this forum
You cannot attach files in this forum
You cannot download files in this forum