Today is a free download without charge Download

Цена страсти / The Ledge (Мэтью Чэпмен) [2011 г., триллер, драма, BDRip1080p]

Reply to topic
 
Author
Message

Delia ®

Gender:

Longevity: 9 years 6 months

Posts: 1821

Торрент-статистика

Post 02-Oct-2011 12:36

[Quote]

Цена страсти The Ledge Год выпуска: 2011
Страна: США
Жанр: триллер, драма
Продолжительность: 01:40:50
Перевод: Дублированный
Режиссер: Мэтью Чэпмен
Продюссер: Марк Дэймон, Моше Дайамант, Майкл Мэйлер
Сценарий: Мэтью Чэпмен
Бюджет: $10 000 000
Премьера в мире: 21 января 2011
В ролях: Патрик Уилсон, Лив Тайлер, Кристофер Горам, Чарли Ханнэм, Терренс Ховард, Жаклин Флеминг, Моника Акоста, Джиллиан Басерсон
Описание: После переезда в новую квартиру Шона нанимается на работу в отель. Ее начальником оказывается сосед по лестничной площадке Гэвин. Непростые отношения с фанатично верующим мужем и возникшая между Шоной и Гэвином тяга толкают их друг к другу. Двое мужчин кардинально противоположных взглядов впутываются в сложный любовный треугольник с прекрасной женщиной, обострившей их философское противостояние до смертельной схватки.
Качество: BDRip1080p
Формат: MKV
Видео кодек: H.264
Аудио кодек: AC3
Видео: English, 5504 Кбит/сек, 1920*1080 (16:9), в 23,976 кадр/сек, AVC ([email protected])
Аудио: Russian, 384 Кбит/сек, 48,0 КГц, 16 бит, 6 канала(ов), AC-3 | дубляж
Аудио:English, 320 Кбит/сек, 48,0 КГц, 16 бит, 6 канала(ов), AC-3 | оригинал
Субтитры:Russian, English (VobSub)

MI:

Код:
Общее
Уникальный идентификатор         : 245922945258042702965595249212455418309 (0xB90309535FC074A08CD02E3835F079C5)
Полное имя                       : E:\торрент\Cena.strasti.2011.x264.BDRip1080p.mkv
Формат                           : Matroska
Размер файла                     : 4,38 Гбайт
Продолжительность                : 1 ч. 40 м.
Общий поток                      : 6217 Кбит/сек
Дата кодирования                 : UTC 2011-10-02 06:16:32
Программа кодирования            : mkvmerge v5.0.0 ('Die Wahre Liebe') built on Sep 25 2011 20:33:49
Библиотека кодирования           : libebml v1.2.2 + libmatroska v1.3.0
Видео
Идентификатор                    : 1
Формат                           : AVC
Формат/Информация                : Advanced Video Codec
Профиль формата                  : [email protected]
Параметр CABAC формата           : Да
Параметр ReFrames формата        : 4 кадры
Идентификатор кодека             : V_MPEG4/ISO/AVC
Продолжительность                : 1 ч. 40 м.
Битрейт                          : 5504 Кбит/сек
Ширина                           : 1920 пикс.
Высота                           : 1080 пикс.
Соотношение сторон               : 16:9
Частота кадров                   : 23,976 кадр/сек
Цветовое пространство            : YUV
Подвыборка цветности             : 4:2:0
Битовая глубина                  : 8 бит
Тип развёртки                    : Прогрессивная
Бит/(Пиксели*Кадры)              : 0.111
Размер потока                    : 3,80 Гбайт (87%)
Библиотека кодирования           : x264 core 118 r2085 8a62835
Настройки программы              : cabac=1 / ref=4 / deblock=1:-2:-2 / analyse=0x3:0x133 / me=umh / subme=9 / psy=1 / psy_rd=1.00:0.25 / mixed_ref=1 / me_range=32 / chroma_me=1 / trellis=2 / 8x8dct=1 / cqm=0 / deadzone=21,11 / fast_pskip=0 / chroma_qp_offset=-4 / threads=6 / sliced_threads=0 / nr=4 / decimate=1 / interlaced=0 / bluray_compat=0 / constrained_intra=0 / bframes=5 / b_pyramid=2 / b_adapt=2 / b_bias=0 / direct=3 / weightb=1 / open_gop=0 / weightp=2 / keyint=250 / keyint_min=23 / scenecut=40 / intra_refresh=0 / rc_lookahead=60 / rc=2pass / mbtree=1 / bitrate=5504 / ratetol=1.0 / qcomp=0.80 / qpmin=2 / qpmax=51 / qpstep=4 / cplxblur=20.0 / qblur=0.5 / ip_ratio=1.40 / aq=1:1.00
Язык                             : English
Аудио #1
Идентификатор                    : 2
Формат                           : AC-3
Формат/Информация                : Audio Coding 3
Расширение режима                : CM (complete main)
Идентификатор кодека             : A_AC3
Продолжительность                : 1 ч. 40 м.
Вид битрейта                     : Постоянный
Битрейт                          : 384 Кбит/сек
Канал(ы)                         : 6 канала(ов)
Расположение каналов             : Front: L C R, Side: L R, LFE
Частота                          : 48,0 КГц
Битовая глубина                  : 16 бит
Метод сжатия                     : С потерями
Размер потока                    : 277 Мбайт (6%)
Язык                             : Russian
Аудио #2
Идентификатор                    : 3
Формат                           : AC-3
Формат/Информация                : Audio Coding 3
Расширение режима                : CM (complete main)
Идентификатор кодека             : A_AC3
Продолжительность                : 1 ч. 40 м.
Вид битрейта                     : Постоянный
Битрейт                          : 320 Кбит/сек
Канал(ы)                         : 6 канала(ов)
Расположение каналов             : Front: L C R, Side: L R, LFE
Частота                          : 48,0 КГц
Битовая глубина                  : 16 бит
Метод сжатия                     : С потерями
Размер потока                    : 231 Мбайт (5%)
Язык                             : English
Текст #1
Идентификатор                    : 4
Формат                           : VobSub
Режим смешивания                 : zlib
Идентификатор кодека             : S_VOBSUB
Идентификатор кодека/Информация  : The same subtitle format used on DVDs
Язык                             : Russian
Текст #2
Идентификатор                    : 5
Формат                           : VobSub
Режим смешивания                 : zlib
Идентификатор кодека             : S_VOBSUB
Идентификатор кодека/Информация  : The same subtitle format used on DVDs
Язык                             : English
Меню
00:00:00.000                     : en:Chapter 01
00:05:00.000                     : en:Chapter 02
00:10:00.000                     : en:Chapter 03
00:15:00.000                     : en:Chapter 04
00:20:00.000                     : en:Chapter 05
00:25:00.000                     : en:Chapter 06
00:30:00.000                     : en:Chapter 07
00:35:00.000                     : en:Chapter 08
00:40:00.000                     : en:Chapter 09
00:45:00.000                     : en:Chapter 10
00:50:00.000                     : en:Chapter 11
00:55:00.000                     : en:Chapter 12
01:00:00.000                     : en:Chapter 13
01:05:00.000                     : en:Chapter 14
01:10:00.000                     : en:Chapter 15
01:15:00.000                     : en:Chapter 16
01:20:00.000                     : en:Chapter 17
01:25:00.000                     : en:Chapter 18
01:30:00.000                     : en:Chapter 19
01:35:00.000                     : en:Chapter 20
01:40:00.000                     : en:Chapter 21

Скриншоты

           

_________________
Человек – это канат, натянутый между животным и сверхчеловеком, – канат над пропастью.
В человеке ценно то, что он мост, а не цель. Фридрих Ницше
Other forum [Profile] [PM]
Display posts from previous:    
Reply to topic

The time now is: Today 00:06

All times are GMT + 3 Hours



You cannot post new topics in this forum
You cannot reply to topics in this forum
You cannot edit your posts in this forum
You cannot delete your posts in this forum
You cannot vote in polls in this forum
You cannot attach files in this forum
You cannot download files in this forum