Today is a free download without charge Download

Слишком крута для тебя / She's Out of My League (Джим Филд Смит) [2010 г., мелодрама, комедия, BDRip 1080p]

Reply to topic
 
Author
Message

Delia ®

Gender:

Longevity: 9 years 6 months

Posts: 1821

Торрент-статистика

Post 01-Oct-2011 23:36

[Quote]

Слишком крута для тебяShe's Out of My League Год выпуска: 2010
Страна: США
Жанр: мелодрама, комедия
Продолжительность: 01:44:30
Перевод:Дублированный
Режиссер: Джим Филд Смит
Продюссер: Эрик Л. Голд, Дэвид Б. Хаусхолтер, Джимми Миллер
Сценарий: Шон Андерс, Джон Моррис
Бюджет: $20 000 000
Премьера в мире: 11 марта 2010
В ролях: Джей Барушель, Элис Ив, ТиДжей Миллер, Майк Фогель, Нейт Торренс, Линдсэй Слоун, Кайл Борнхеймер, Джессика Ст. Клэр, Кристен Риттер, Дебра Джо Рапп
Описание: Неуверенный в себе Кирк Кеттнер отвечает за безопасность на авиарейсах, точнее просит пассажиров перед полётом снимать свою обувь для досмотра. Однажды Кирку повезло встретить Молли и вопреки его ожиданиям, с этой умной и очаровательной девушкой у них возникли взаимные чувства. Вот только не стоило Кирку слушать советов семьи и друзей, считающих, что Молли слишком хороша для него.
Качество: BDRip 1080p
Формат: MKV
Видео кодек: H.264
Аудио кодек: AC3
Видео: English, 8022 Кбит/сек, 1920*816 (2,35:1), в 23,976 кадр/сек, AVC ([email protected])
Аудио: Russian, 640 Кбит/сек, 48,0 КГц, 16 бит, 6 канала(ов), AC-3
Аудио:English,320 Кбит/сек, 48,0 КГц, 16 бит, 6 канала(ов), AC-3
Субтитры:Russian, Ukrainian, English (VobSub)

MI:

Код:
Общее
Уникальный идентификатор         : 183793507981188917971658931774060291297 (0x8A45579146CDA149B1543D657380E4E1)
Полное имя                       : E:\торрент\She's Out of My League9( 2010)BDRip1080p.mkv
Формат                           : Matroska
Размер файла                     : 6,57 Гбайт
Продолжительность                : 1 ч. 44 м.
Общий поток                      : 9002 Кбит/сек
Дата кодирования                 : UTC 2011-10-01 19:49:51
Программа кодирования            : mkvmerge v5.0.0 ('Die Wahre Liebe') built on Sep 25 2011 20:33:49
Библиотека кодирования           : libebml v1.2.2 + libmatroska v1.3.0
Видео
Идентификатор                    : 1
Формат                           : AVC
Формат/Информация                : Advanced Video Codec
Профиль формата                  : [email protected]
Параметр CABAC формата           : Да
Параметр ReFrames формата        : 5 кадры
Идентификатор кодека             : V_MPEG4/ISO/AVC
Продолжительность                : 1 ч. 44 м.
Битрейт                          : 8022 Кбит/сек
Ширина                           : 1920 пикс.
Высота                           : 816 пикс.
Соотношение сторон               : 2,35:1
Частота кадров                   : 23,976 кадр/сек
Цветовое пространство            : YUV
Подвыборка цветности             : 4:2:0
Битовая глубина                  : 8 бит
Тип развёртки                    : Прогрессивная
Бит/(Пиксели*Кадры)              : 0.214
Размер потока                    : 5,74 Гбайт (87%)
Библиотека кодирования           : x264 core 118 r2085 8a62835
Настройки программы              : cabac=1 / ref=5 / deblock=1:-3:-3 / analyse=0x3:0x133 / me=umh / subme=9 / psy=1 / psy_rd=1.00:0.20 / mixed_ref=1 / me_range=32 / chroma_me=1 / trellis=2 / 8x8dct=1 / cqm=0 / deadzone=21,11 / fast_pskip=0 / chroma_qp_offset=-3 / threads=6 / sliced_threads=0 / nr=0 / decimate=1 / interlaced=0 / bluray_compat=0 / constrained_intra=0 / bframes=5 / b_pyramid=2 / b_adapt=2 / b_bias=0 / direct=3 / weightb=1 / open_gop=0 / weightp=2 / keyint=250 / keyint_min=23 / scenecut=40 / intra_refresh=0 / rc_lookahead=60 / rc=2pass / mbtree=1 / bitrate=8022 / ratetol=1.0 / qcomp=0.80 / qpmin=2 / qpmax=51 / qpstep=4 / cplxblur=20.0 / qblur=0.5 / ip_ratio=1.40 / aq=1:1.00
Язык                             : English
Аудио #1
Идентификатор                    : 2
Формат                           : AC-3
Формат/Информация                : Audio Coding 3
Расширение режима                : CM (complete main)
Идентификатор кодека             : A_AC3
Продолжительность                : 1 ч. 44 м.
Вид битрейта                     : Постоянный
Битрейт                          : 640 Кбит/сек
Канал(ы)                         : 6 канала(ов)
Расположение каналов             : Front: L C R, Side: L R, LFE
Частота                          : 48,0 КГц
Битовая глубина                  : 16 бит
Метод сжатия                     : С потерями
Размер потока                    : 479 Мбайт (7%)
Язык                             : Russian
Аудио #2
Идентификатор                    : 3
Формат                           : AC-3
Формат/Информация                : Audio Coding 3
Расширение режима                : CM (complete main)
Идентификатор кодека             : A_AC3
Продолжительность                : 1 ч. 44 м.
Вид битрейта                     : Постоянный
Битрейт                          : 320 Кбит/сек
Канал(ы)                         : 6 канала(ов)
Расположение каналов             : Front: L C R, Side: L R, LFE
Частота                          : 48,0 КГц
Битовая глубина                  : 16 бит
Метод сжатия                     : С потерями
Размер потока                    : 239 Мбайт (4%)
Текст #1
Идентификатор                    : 4
Формат                           : VobSub
Режим смешивания                 : zlib
Идентификатор кодека             : S_VOBSUB
Идентификатор кодека/Информация  : The same subtitle format used on DVDs
Язык                             : Russian
Текст #2
Идентификатор                    : 5
Формат                           : VobSub
Режим смешивания                 : zlib
Идентификатор кодека             : S_VOBSUB
Идентификатор кодека/Информация  : The same subtitle format used on DVDs
Язык                             : Ukrainian
Текст #3
Идентификатор                    : 6
Формат                           : VobSub
Режим смешивания                 : zlib
Идентификатор кодека             : S_VOBSUB
Идентификатор кодека/Информация  : The same subtitle format used on DVDs
Язык                             : English
Меню
00:00:00.000                     : en:Chapter 01
00:03:29.834                     : en:Chapter 02
00:06:50.910                     : en:Chapter 03
00:11:51.752                     : en:Chapter 04
00:16:53.804                     : en:Chapter 05
00:22:41.610                     : en:Chapter 06
00:27:37.614                     : en:Chapter 07
00:35:42.849                     : en:Chapter 08
00:44:07.645                     : en:Chapter 09
00:51:58.240                     : en:Chapter 10
01:02:12.270                     : en:Chapter 11
01:07:22.621                     : en:Chapter 12
01:14:18.412                     : en:Chapter 13
01:22:37.410                     : en:Chapter 14
01:27:59.440                     : en:Chapter 15
01:34:14.065                     : en:Chapter 16
01:44:31.848                     : en:Chapter 17

Скриншоты

       
       

_________________
Человек – это канат, натянутый между животным и сверхчеловеком, – канат над пропастью.
В человеке ценно то, что он мост, а не цель. Фридрих Ницше


Last edited by Delia on 2011-10-03 07:54; edited 1 time in total
Other forum [Profile] [PM]
Display posts from previous:    
Reply to topic

The time now is: Today 20:18

All times are GMT + 3 Hours



You cannot post new topics in this forum
You cannot reply to topics in this forum
You cannot edit your posts in this forum
You cannot delete your posts in this forum
You cannot vote in polls in this forum
You cannot attach files in this forum
You cannot download files in this forum