Today is a free download without charge Download

Adam Levine & Blake Shelton & CeeLo Green & Christina Aguilera - 'I Love Rock'n'Roll' (Live on The Voice) [2013, Rock, HDTV 1080i]

Reply to topic
 
Author
Message

Omen ®

Longevity: 8 years 3 months

Posts: 181087

Торрент-статистика

Post 27-Sep-2013 13:45

[Quote]

Adam Levine & Blake Shelton & CeeLo Green & Christina Aguilera
'I Love Rock'n'Roll' (Live on The Voice)


Жанр: Rock
Продолжительность: 00:02:39
Год выпуска: 23/09/2013
Качество: HDTV 1080i
Контейнер: MPG
Видео кодек: MPEG2
Аудио кодек: AC3
Видео: MPEG2 Video 1920x1080 29.97fps 12.4Mbps
Аудио: Dolby AC3 48000Hz 6ch 384kbps

Отчёт MediaInfo

ОбщееПолное имя : Adam Levine & Blake Shelton & CeeLo Green & Christina Aguilera - 'I Love Rock'n'Roll' (Live on The Voice 09-23-2013) 1080i.mpgФормат : MPEG-PSРазмер файла : 246 МбайтПродолжительность : 2 м. 38 с.Режим общего битрейта : ПеременныйОбщий поток : 13,0 Мбит/сек
ВидеоИдентификатор : 224 (0xE0)Формат : MPEG VideoВерсия формата : Version 2Профиль формата : [email protected]Параметр BVOP формата : ДаПараметр матрицы формата : ВыборочнаяПараметр GOP формата : M=3, N=45Продолжительность : 2 м. 38 с.Вид битрейта : ПеременныйБитрейт : 12,4 Мбит/секМаксимальный битрейт : 38,8 Мбит/секШирина : 1920 пикселейВысота : 1080 пикселейСоотношение сторон : 16:9Описание активного формата : Pillarbox 4:3 imageЧастота кадров : 29,970 кадров/секСтандарт вещания : ComponentЦветовое пространство : YUVСубдискретизация насыщенности : 4:2:0Битовая глубина : 8 битТип развёртки : ЧересстрочнаяПорядок развёртки : Верхнее поле первоеМетод сжатия : С потерямиБит/(Пиксели*Кадры) : 0.199Размер потока : 234 Мбайт (95%)Основные цвета : BT.709Характеристики трансфера : BT.709Коэффициенты матрицы : BT.709
АудиоИдентификатор : 189 (0xBD)-128 (0x80)Формат : AC-3Формат/Информация : Audio Coding 3Расширение режима : CM (complete main)Параметр Endianness формата : BigРежим смешивания : DVD-VideoПродолжительность : 2 м. 37 с.Вид битрейта : ПостоянныйБитрейт : 384 Кбит/секКаналы : 6 каналовРасположение каналов : Front: L C R, Side: L R, LFEЧастота : 48,0 КГцБитовая глубина : 16 битМетод сжатия : С потерямиЗадержка видео : 6 мс.Размер потока : 7,23 Мбайт (3%)
Текст #1Идентификатор : 224 (0xE0)-CC1Формат : EIA-608Режим смешивания : A/53 / DTVCC TransportРежим смешивания, доп. информация : Muxed in Video #1Вид битрейта : ПостоянныйРазмер потока : 0,00 байт (0%)
Текст #2Идентификатор : 224 (0xE0)-CC3Формат : EIA-608Режим смешивания : A/53 / DTVCC TransportРежим смешивания, доп. информация : Muxed in Video #1Вид битрейта : ПостоянныйРазмер потока : 0,00 байт (0%)
Текст #3Идентификатор : 224 (0xE0)-1Формат : EIA-708Режим смешивания : A/53 / DTVCC TransportРежим смешивания, доп. информация : Muxed in Video #1Вид битрейта : ПостоянныйРазмер потока : 0,00 байт (0%)
Текст #4Идентификатор : 224 (0xE0)-2Формат : EIA-708Режим смешивания : A/53 / DTVCC TransportРежим смешивания, доп. информация : Muxed in Video #1Вид битрейта : ПостоянныйРазмер потока : 0,00 байт (0%)

Скриншоты


Other forum [Profile] [PM]
Display posts from previous:    
Reply to topic

The time now is: Today 08:11

All times are GMT + 3 Hours



You cannot post new topics in this forum
You cannot reply to topics in this forum
You cannot edit your posts in this forum
You cannot delete your posts in this forum
You cannot vote in polls in this forum
You cannot attach files in this forum
You cannot download files in this forum