Today is a free download without charge Download

Такси 2 / Taxi 2 (2000) [1080p] Blu-Ray

Reply to topic
 
Author
Message

Varius ®

Gender:

Longevity: 9 years 7 months

Posts: 2416

Location: Hell

Торрент-статистика

Post 01-Oct-2011 22:35

[Quote]

Такси 2 / Taxi 2 (2000) [1080p] Blu-Ray- Русское название: Такси 2
Оригинальное название: Taxi 2
Год выпуска: 2000
Жанр: Боевик, Комедия, Криминал
Описание фильма:
Во Францию прибывает министр обороны Японии. Цель его визита — ознакомиться с французским опытом борьбы с терроризмом и подписать «контракт века» о взаимном сотрудничестве.
Неожиданно во время показательных выступлений французской полиции министра обороны похищает гангстерская группировка «Якудза», желающая сорвать заключение наиважнейшего контракта. Даниэль и Эмильен отправляются на поиски высокого гостя. В дело вступает уже хорошо знакомое нам такси…
Режиссер: Жерар Кравчик
Актеры: Сами Насери, Фредерик Дифенталь, Марион Котийяр, Эмма Сьоберг, Бернар Фарси, Жан-Кристоф Буве, Фредерик Тирмон, Марк Фор, Хирата Харухико, Цую Симидзу
Продолжительность: 1:28:25
Перевод: Дублированный, Авторский одноголосый (Гаврилов)
Язык субтитров: Русские
Вид субтитров: Вшитые
Бонусы:
• На съемочной площадке
• Трейлер
Дата мировой премьеры: 25 марта 2000
Дата российской премьеры: 7 декабря 2000
Дата выхода Blu-Ray релиза: 14 сентября 2011
Видеокодек: MPEG-4 AVC/H.264
Битрейт видео: ~23001 kbps
Размер кадра: 1920 х 1080
Качество видео: Blu-Ray
Аудио 1: DTS-HD Master Audio 5.1 / 48 kHz / 1705 kbps / 16-bit (DTS Core: 5.1 / 48 kHz / 1536 kbps / 16-bit) |French| - Оригинал
Аудио 2: DTS-HD Master Audio 5.1 / 48 kHz / 1747 kbps / 16-bit (DTS Core: 5.1 / 48 kHz / 1536 kbps / 16-bit) |Russian| - Дубляж
Аудио 3: Dolby Digital Audio 5.1 / 48 kHz / 640 kbps |French| - Оригинал
Аудио 4: Dolby Digital Audio 640 kbps 5.1 / 48 kHz / 640 kbps |Russian| - Дубляж
Аудио 5: Dolby Digital Audio 640 kbps 5.1 / 48 kHz / 640 kbps |Russian| - Авторский одноголосый (Гаврилов)

BDInfo

Disc Title: TAXI_II
Disc Size: 20 914 723 252 bytes
Protection: AACS
BD-Java: No
BDInfo: 0.5.6
Notes:
BDINFO HOME:
Cinema Squid
http://www.cinemasquid.com/blu-ray/tools/bdinfo
INCLUDES FORUMS REPORT FOR:
AVS Forum Blu-ray Audio and Video Specifications Thread
http://www.avsforum.com/avs-vb/showthread.php?t=1155731
********************
PLAYLIST: 00004.MPLS
********************
<--- BEGIN FORUMS PASTE --->
Код:
Total   Video
Title                                                           Codec   Length  Movie Size      Disc Size       Bitrate Bitrate Main Audio Track                          Secondary Audio Track
-----                                                           ------  ------- --------------  --------------  ------- ------- ------------------                        ---------------------
00004.MPLS                                                      AVC     1:28:25 20 122 540 032  20 914 723 252  30,34   23,00   DTS-HD Master 5.1 1705Kbps (48kHz/16-bit) DD AC3 5.1 640Kbps
Код:
DISC INFO:
Disc Title:     TAXI_II
Disc Size:      20 914 723 252 bytes
Protection:     AACS
BD-Java:        No
BDInfo:         0.5.6
PLAYLIST REPORT:
Name:                   00004.MPLS
Length:                 1:28:25 (h:m:s)
Size:                   20 122 540 032 bytes
Total Bitrate:          30,34 Mbps
VIDEO:
Codec                   Bitrate             Description
-----                   -------             -----------
MPEG-4 AVC Video        23001 kbps          1080p / 24 fps / 16:9 / High Profile 4.1
AUDIO:
Codec                           Language        Bitrate         Description
-----                           --------        -------         -----------
DTS-HD Master Audio             French          1705 kbps       5.1 / 48 kHz / 1705 kbps / 16-bit (DTS Core: 5.1 / 48 kHz / 1509 kbps / 16-bit)
DTS-HD Master Audio             Russian         1747 kbps       5.1 / 48 kHz / 1747 kbps / 16-bit (DTS Core: 5.1 / 48 kHz / 1509 kbps / 16-bit)
Dolby Digital Audio             French          640 kbps        5.1 / 48 kHz / 640 kbps
Dolby Digital Audio             Russian         640 kbps        5.1 / 48 kHz / 640 kbps
Dolby Digital Audio             Russian         640 kbps        5.1 / 48 kHz / 640 kbps
SUBTITLES:
Codec                           Language        Bitrate         Description
-----                           --------        -------         -----------
Presentation Graphics           Russian         36,366 kbps
FILES:
Name            Time In         Length          Size            Total Bitrate
----            -------         ------          ----            -------------
00005.M2TS      0:00:00.000     1:28:25.083     20 122 540 032  30 345
CHAPTERS:
Number          Time In         Length          Avg Video Rate  Max 1-Sec Rate  Max 1-Sec Time  Max 5-Sec Rate  Max 5-Sec Time  Max 10Sec Rate  Max 10Sec Time  Avg Frame Size  Max Frame Size  Max Frame Time
------          -------         ------          --------------  --------------  --------------  --------------  --------------  --------------  --------------  --------------  --------------  --------------
1               0:00:00.000     0:07:29.750     21 652 kbps     35 520 kbps     00:01:57.458    31 318 kbps     00:01:16.458    28 364 kbps     00:01:54.499    112 758 bytes   435 980 bytes   00:01:19.500
2               0:07:29.750     0:07:13.750     24 502 kbps     38 303 kbps     00:09:32.916    33 475 kbps     00:09:29.166    30 669 kbps     00:09:28.416    127 614 bytes   413 201 bytes   00:08:19.583
3               0:14:43.500     0:08:34.916     24 782 kbps     36 384 kbps     00:19:38.083    31 835 kbps     00:19:36.791    29 138 kbps     00:19:34.708    129 074 bytes   351 982 bytes   00:19:03.000
4               0:23:18.416     0:08:06.916     24 725 kbps     36 302 kbps     00:28:03.041    33 125 kbps     00:28:00.708    31 616 kbps     00:27:56.708    128 774 bytes   366 815 bytes   00:23:27.041
5               0:31:25.333     0:08:15.666     25 157 kbps     29 923 kbps     00:38:14.125    27 660 kbps     00:37:37.583    27 329 kbps     00:37:37.583    131 024 bytes   319 133 bytes   00:38:14.833
6               0:39:41.000     0:07:11.791     25 036 kbps     29 658 kbps     00:39:48.625    27 356 kbps     00:46:21.458    26 931 kbps     00:42:45.708    130 398 bytes   293 281 bytes   00:42:04.375
7               0:46:52.791     0:07:24.291     25 438 kbps     30 239 kbps     00:48:57.833    28 565 kbps     00:49:32.208    27 675 kbps     00:49:27.166    132 491 bytes   314 836 bytes   00:51:23.083
8               0:54:17.083     0:06:57.041     23 034 kbps     38 622 kbps     00:57:25.875    28 743 kbps     00:57:18.875    27 503 kbps     00:54:35.208    119 966 bytes   378 338 bytes   00:54:26.416
9               1:01:14.125     0:06:56.208     23 621 kbps     34 273 kbps     01:05:26.875    30 561 kbps     01:05:36.250    28 302 kbps     01:05:36.583    123 025 bytes   416 378 bytes   01:05:39.708
10              1:08:10.333     0:07:35.750     23 888 kbps     37 038 kbps     01:13:32.458    31 648 kbps     01:13:31.083    29 136 kbps     01:13:28.416    124 417 bytes   332 001 bytes   01:08:50.500
11              1:15:46.083     0:07:48.041     22 366 kbps     29 923 kbps     01:16:26.208    28 854 kbps     01:18:44.750    28 174 kbps     01:18:39.708    116 489 bytes   320 680 bytes   01:18:16.625
12              1:23:34.125     0:04:50.958     5 089 kbps      14 509 kbps     01:28:10.083    12 426 kbps     01:28:07.750    11 026 kbps     01:28:05.083    26 510 bytes    246 354 bytes   01:28:10.125
STREAM DIAGNOSTICS:
File            PID             Type            Codec           Language                Seconds                 Bitrate                 Bytes           Packets
----            ---             ----            -----           --------                --------------          --------------          -------------   -----
00005.M2TS      4113 (0x1011)   0x1B            AVC                                     5305,000                23 001                  15 252 481 235  82 968 524
00005.M2TS      4352 (0x1100)   0x86            DTS-HD MA       rus (Russian)           5305,000                1 747                   1 158 315 776   7 107 491
00005.M2TS      4353 (0x1101)   0x81            AC3             rus (Russian)           5305,000                639                     423 941 120     2 484 030
00005.M2TS      4354 (0x1102)   0x81            AC3             rus (Russian)           5305,000                639                     423 941 120     2 484 030
00005.M2TS      4355 (0x1103)   0x86            DTS-HD MA       fra (French)            5305,000                1 705                   1 130 421 756   6 961 859
00005.M2TS      4356 (0x1104)   0x81            AC3             fra (French)            5305,000                639                     423 941 120     2 484 030
00005.M2TS      4608 (0x1200)   0x90            PGS             rus (Russian)           5305,000                36                      24 115 676      137 202
<---- END FORUMS PASTE ---->
QUICK SUMMARY:
Disc Title: TAXI_II
Disc Size: 20 914 723 252 bytes
Protection: AACS
BD-Java: No
Playlist: 00004.MPLS
Size: 20 122 540 032 bytes
Length: 1:28:25
Total Bitrate: 30,34 Mbps
Video: MPEG-4 AVC Video / 23001 kbps / 1080p / 24 fps / 16:9 / High Profile 4.1
Audio: French / DTS-HD Master Audio / 5.1 / 48 kHz / 1705 kbps / 16-bit (DTS Core: 5.1 / 48 kHz / 1509 kbps / 16-bit)
Audio: Russian / DTS-HD Master Audio / 5.1 / 48 kHz / 1747 kbps / 16-bit (DTS Core: 5.1 / 48 kHz / 1509 kbps / 16-bit)
Audio: French / Dolby Digital Audio / 5.1 / 48 kHz / 640 kbps
Audio: Russian / Dolby Digital Audio / 5.1 / 48 kHz / 640 kbps
Audio: Russian / Dolby Digital Audio / 5.1 / 48 kHz / 640 kbps
Subtitle: Russian / 36,366 kbps
********************
PLAYLIST: 00003.MPLS
********************
<--- BEGIN FORUMS PASTE --->
Код:
Total   Video
Title                                                           Codec   Length  Movie Size      Disc Size       Bitrate Bitrate Main Audio Track                          Secondary Audio Track
-----                                                           ------  ------- --------------  --------------  ------- ------- ------------------                        ---------------------
00003.MPLS                                                      MPEG-2  0:08:28 499 802 112     20 914 723 252  7,86    7,00    DD AC3 2.0 448Kbps
Код:
DISC INFO:
Disc Title:     TAXI_II
Disc Size:      20 914 723 252 bytes
Protection:     AACS
BD-Java:        No
BDInfo:         0.5.6
PLAYLIST REPORT:
Name:                   00003.MPLS
Length:                 0:08:28 (h:m:s)
Size:                   499 802 112 bytes
Total Bitrate:          7,86 Mbps
VIDEO:
Codec                   Bitrate             Description
-----                   -------             -----------
MPEG-2 Video            7000 kbps           576i / 25 fps / 4:3
AUDIO:
Codec                           Language        Bitrate         Description
-----                           --------        -------         -----------
Dolby Digital Audio             Russian         448 kbps        2.0 / 48 kHz / 448 kbps / DN -4dB
FILES:
Name            Time In         Length          Size            Total Bitrate
----            -------         ------          ----            -------------
00006.M2TS      0:00:00.000     0:08:28.800     499 802 112     7 859
CHAPTERS:
Number          Time In         Length          Avg Video Rate  Max 1-Sec Rate  Max 1-Sec Time  Max 5-Sec Rate  Max 5-Sec Time  Max 10Sec Rate  Max 10Sec Time  Avg Frame Size  Max Frame Size  Max Frame Time
------          -------         ------          --------------  --------------  --------------  --------------  --------------  --------------  --------------  --------------  --------------  --------------
1               0:00:00.000     0:08:28.800     7 000 kbps      8 078 kbps      00:06:36.559    7 305 kbps      00:00:01.799    7 137 kbps      00:00:01.960    35 000 bytes    173 224 bytes   00:08:04.119
STREAM DIAGNOSTICS:
File            PID             Type            Codec           Language                Seconds                 Bitrate                 Bytes           Packets
----            ---             ----            -----           --------                --------------          --------------          -------------   -----
00006.M2TS      4113 (0x1011)   0x02            MPEG-2                                  508,720                 7 001                   445 200 008     2 427 042
00006.M2TS      4352 (0x1100)   0x81            AC3             rus (Russian)           508,720                 448                     28 492 800      159 000
<---- END FORUMS PASTE ---->
QUICK SUMMARY:
Disc Title: TAXI_II
Disc Size: 20 914 723 252 bytes
Protection: AACS
BD-Java: No
Playlist: 00003.MPLS
Size: 499 802 112 bytes
Length: 0:08:28
Total Bitrate: 7,86 Mbps
Video: MPEG-2 Video / 7000 kbps / 576i / 25 fps / 4:3
Audio: Russian / Dolby Digital Audio / 2.0 / 48 kHz / 448 kbps / DN -4dB
********************
PLAYLIST: 00001.MPLS
********************
<--- BEGIN FORUMS PASTE --->
Код:
Total   Video
Title                                                           Codec   Length  Movie Size      Disc Size       Bitrate Bitrate Main Audio Track                          Secondary Audio Track
-----                                                           ------  ------- --------------  --------------  ------- ------- ------------------                        ---------------------
00001.MPLS                                                      MPEG-2  0:01:46 104 140 800     20 914 723 252  7,86    7,00    DD AC3 2.0 448Kbps
Код:
DISC INFO:
Disc Title:     TAXI_II
Disc Size:      20 914 723 252 bytes
Protection:     AACS
BD-Java:        No
BDInfo:         0.5.6
PLAYLIST REPORT:
Name:                   00001.MPLS
Length:                 0:01:46 (h:m:s)
Size:                   104 140 800 bytes
Total Bitrate:          7,86 Mbps
VIDEO:
Codec                   Bitrate             Description
-----                   -------             -----------
MPEG-2 Video            7001 kbps           576i / 25 fps / 4:3
AUDIO:
Codec                           Language        Bitrate         Description
-----                           --------        -------         -----------
Dolby Digital Audio             Russian         448 kbps        2.0 / 48 kHz / 448 kbps / DN -4dB
FILES:
Name            Time In         Length          Size            Total Bitrate
----            -------         ------          ----            -------------
00007.M2TS      0:00:00.000     0:01:46.000     104 140 800     7 860
CHAPTERS:
Number          Time In         Length          Avg Video Rate  Max 1-Sec Rate  Max 1-Sec Time  Max 5-Sec Rate  Max 5-Sec Time  Max 10Sec Rate  Max 10Sec Time  Avg Frame Size  Max Frame Size  Max Frame Time
------          -------         ------          --------------  --------------  --------------  --------------  --------------  --------------  --------------  --------------  --------------  --------------
1               0:00:00.000     0:01:46.000     7 001 kbps      8 224 kbps      00:00:29.039    7 281 kbps      00:00:02.840    7 112 kbps      00:00:02.480    35 003 bytes    134 390 bytes   00:00:15.600
STREAM DIAGNOSTICS:
File            PID             Type            Codec           Language                Seconds                 Bitrate                 Bytes           Packets
----            ---             ----            -----           --------                --------------          --------------          -------------   -----
00007.M2TS      4113 (0x1011)   0x02            MPEG-2                                  105,840                 7 011                   92 757 788      505 685
00007.M2TS      4352 (0x1100)   0x81            AC3             rus (Russian)           105,840                 449                     5 936 896       33 130
<---- END FORUMS PASTE ---->
QUICK SUMMARY:
Disc Title: TAXI_II
Disc Size: 20 914 723 252 bytes
Protection: AACS
BD-Java: No
Playlist: 00001.MPLS
Size: 104 140 800 bytes
Length: 0:01:46
Total Bitrate: 7,86 Mbps
Video: MPEG-2 Video / 7001 kbps / 576i / 25 fps / 4:3
Audio: Russian / Dolby Digital Audio / 2.0 / 48 kHz / 448 kbps / DN -4dB
********************
PLAYLIST: 00000.MPLS
********************
<--- BEGIN FORUMS PASTE --->
Код:
Total   Video
Title                                                           Codec   Length  Movie Size      Disc Size       Bitrate Bitrate Main Audio Track                          Secondary Audio Track
-----                                                           ------  ------- --------------  --------------  ------- ------- ------------------                        ---------------------
00000.MPLS                                                      AVC     0:00:22 35 395 584      20 914 723 252  12,86   11,29   LPCM 2.0 1536Kbps (48kHz/16-bit)
Код:
DISC INFO:
Disc Title:     TAXI_II
Disc Size:      20 914 723 252 bytes
Protection:     AACS
BD-Java:        No
BDInfo:         0.5.6
PLAYLIST REPORT:
Name:                   00000.MPLS
Length:                 0:00:22 (h:m:s)
Size:                   35 395 584 bytes
Total Bitrate:          12,86 Mbps
VIDEO:
Codec                   Bitrate             Description
-----                   -------             -----------
MPEG-4 AVC Video        11287 kbps          1080p / 23,976 fps / 16:9 / High Profile 4.1
AUDIO:
Codec                           Language        Bitrate         Description
-----                           --------        -------         -----------
LPCM Audio                      Russian         1536 kbps       2.0 / 48 kHz / 1536 kbps / 16-bit
FILES:
Name            Time In         Length          Size            Total Bitrate
----            -------         ------          ----            -------------
00000.M2TS      0:00:00.000     0:00:10.009     1 726 464       1 380
00001.M2TS      0:00:10.009     0:00:12.011     33 669 120      22 424
CHAPTERS:
Number          Time In         Length          Avg Video Rate  Max 1-Sec Rate  Max 1-Sec Time  Max 5-Sec Rate  Max 5-Sec Time  Max 10Sec Rate  Max 10Sec Time  Avg Frame Size  Max Frame Size  Max Frame Time
------          -------         ------          --------------  --------------  --------------  --------------  --------------  --------------  --------------  --------------  --------------  --------------
1               0:00:00.000     0:00:22.021     11 287 kbps     25 905 kbps     00:00:15.765    21 638 kbps     00:00:12.595    20 338 kbps     00:00:10.427    58 844 bytes    392 533 bytes   00:00:16.015
STREAM DIAGNOSTICS:
File            PID             Type            Codec           Language                Seconds                 Bitrate                 Bytes           Packets
----            ---             ----            -----           --------                --------------          --------------          -------------   -----
00000.M2TS      4113 (0x1011)   0x1B            AVC                                     9,885                   1 264                   1 562 393       8 627
00001.M2TS      4113 (0x1011)   0x1B            AVC                                     11,845                  19 929                  29 507 466      160 528
00001.M2TS      4352 (0x1100)   0x80            LPCM            rus (Russian)           11,845                  1 563                   2 313 600       14 400
<---- END FORUMS PASTE ---->
QUICK SUMMARY:
Disc Title: TAXI_II
Disc Size: 20 914 723 252 bytes
Protection: AACS
BD-Java: No
Playlist: 00000.MPLS
Size: 35 395 584 bytes
Length: 0:00:22
Total Bitrate: 12,86 Mbps
Video: MPEG-4 AVC Video / 11287 kbps / 1080p / 23,976 fps / 16:9 / High Profile 4.1
Audio: Russian / LPCM Audio / 2.0 / 48 kHz / 1536 kbps / 16-bit

MediaInfo

Общее Идентификатор : 0 (0x0)
Полное имя : H:\TAXI_II\BDMV\STREAM\00005.m2ts
Формат : BDAV
Формат/Информация : Blu-ray Video
Размер файла : 18,7 Гбайт
Продолжительность : 1 ч. 28 м.
Режим общего битрейта : Переменный
Общий поток : 30,3 Мбит/сек
Максимальный общий битрейт : 48,0 Мбит/сек
Видео
Идентификатор : 4113 (0x1011)
Идентификатор меню : 1 (0x1)
Формат : AVC
Формат/Информация : Advanced Video Codec
Профиль формата : [email protected]
Параметр CABAC формата : Да
Параметр ReFrames формата : 4 кадра
Идентификатор кодека : 27
Продолжительность : 1 ч. 28 м.
Вид битрейта : Переменный
Битрейт : 24,1 Мбит/сек
Максимальный битрейт : 29,0 Мбит/сек
Ширина : 1920 пикселей
Высота : 1080 пикселей
Соотношение сторон : 16:9
Частота кадров : 24,000 кадра/сек
Стандарт вещания : NTSC
Цветовое пространство : YUV
Субдискретизация насыщенности : 4:2:0
Битовая глубина : 8 бит
Тип развёртки : Прогрессивная
Бит/(Пиксели*Кадры) : 0.484
Размер потока : 14,9 Гбайт (79%)
Основные цвета : BT.709-5, BT.1361, IEC 61966-2-4, SMPTE RP177
Характеристики трансфера : BT.709-5, BT.1361
Коэффициенты матрицы : BT.709-5, BT.1361, IEC 61966-2-4 709, SMPTE RP177
Аудио #1
Идентификатор : 4352 (0x1100)
Идентификатор меню : 1 (0x1)
Формат : DTS
Формат/Информация : Digital Theater Systems
Профиль формата : MA / Core
Режим смешивания : Stream extension
Идентификатор кодека : 134
Продолжительность : 1 ч. 28 м.
Вид битрейта : Переменный
Битрейт : 1561 Кбит/сек / 1510 Кбит/сек
Каналы : 6 каналов
Расположение каналов : Front: L C R, Side: L R, LFE
Частота : 48,0 КГц
Битовая глубина : 16 бит
Метод сжатия : Без потерь / Lossy
Аудио #2
Идентификатор : 4353 (0x1101)
Идентификатор меню : 1 (0x1)
Формат : AC-3
Формат/Информация : Audio Coding 3
Расширение режима : CM (complete main)
Идентификатор кодека : 129
Продолжительность : 1 ч. 28 м.
Вид битрейта : Постоянный
Битрейт : 640 Кбит/сек
Каналы : 6 каналов
Расположение каналов : Front: L C R, Side: L R, LFE
Частота : 48,0 КГц
Битовая глубина : 16 бит
Метод сжатия : С потерями
Размер потока : 404 Мбайт (2%)
Аудио #3
Идентификатор : 4354 (0x1102)
Идентификатор меню : 1 (0x1)
Формат : AC-3
Формат/Информация : Audio Coding 3
Расширение режима : CM (complete main)
Идентификатор кодека : 129
Продолжительность : 1 ч. 28 м.
Вид битрейта : Постоянный
Битрейт : 640 Кбит/сек
Каналы : 6 каналов
Расположение каналов : Front: L C R, Side: L R, LFE
Частота : 48,0 КГц
Битовая глубина : 16 бит
Метод сжатия : С потерями
Размер потока : 404 Мбайт (2%)
Аудио #4
Идентификатор : 4355 (0x1103)
Идентификатор меню : 1 (0x1)
Формат : DTS
Формат/Информация : Digital Theater Systems
Профиль формата : MA / Core
Режим смешивания : Stream extension
Идентификатор кодека : 134
Продолжительность : 1 ч. 28 м.
Вид битрейта : Переменный
Битрейт : 1561 Кбит/сек / 1510 Кбит/сек
Каналы : 6 каналов
Расположение каналов : Front: L C R, Side: L R, LFE
Частота : 48,0 КГц
Битовая глубина : 16 бит
Метод сжатия : Без потерь / Lossy
Аудио #5
Идентификатор : 4356 (0x1104)
Идентификатор меню : 1 (0x1)
Формат : AC-3
Формат/Информация : Audio Coding 3
Расширение режима : CM (complete main)
Идентификатор кодека : 129
Продолжительность : 1 ч. 28 м.
Вид битрейта : Постоянный
Битрейт : 640 Кбит/сек
Каналы : 6 каналов
Расположение каналов : Front: L C R, Side: L R, LFE
Частота : 48,0 КГц
Битовая глубина : 16 бит
Метод сжатия : С потерями
Размер потока : 404 Мбайт (2%)
Скриншоты:
       

_________________

Создавая "Новую папку", не считайте себя Создателем - это право Вам дано Админом


Other forum [Profile] [PM]
Display posts from previous:    
Reply to topic

The time now is: Today 18:41

All times are GMT + 3 Hours



You cannot post new topics in this forum
You cannot reply to topics in this forum
You cannot edit your posts in this forum
You cannot delete your posts in this forum
You cannot vote in polls in this forum
You cannot attach files in this forum
You cannot download files in this forum