Today is a free download without charge Download

Within Temptation ft. Tarja - Paradise (What About Us) [2013, Alternative Rock, HDCamRip]

Reply to topic
 
Author
Message

Omen ®

Longevity: 8 years 3 months

Posts: 181087

Торрент-статистика

Post 26-Sep-2013 21:19

[Quote]

Within Temptation ft. Tarja - Paradise (What About Us)
Жанр: Alternative Rock
Продолжительность: 5mn 50s 537ms
Год выпуска: 2013
Описание: Within Temptation ft. Tarja - Paradise (What About Us)
Качество: HDCamRip
Контейнер: MKV
Видео кодек: H.264
Аудио кодек: MP3
Видео: AVC at 1 800 Kbps 1280 x 720 (1.778) at 25.000 fps
Аудио: MPEG Audio at 320 Kbps 2 channels, 44.1 KHz

Отчёт MediaInfo / BDInfo

Format : MatroskaFormat version : Version 2File size : 88.0 MiBDuration : 5mn 50sOverall bit rate : 2 105 KbpsEncoded date : UTC 2013-09-26 15:51:15Writing application : mkvmerge v5.2.0 ('I can't explain') built on Dec 18 2011 18:12:03Writing library : libebml v1.2.3 + libmatroska v1.3.0
VideoID : 1Format : AVCFormat/Info : Advanced Video CodecFormat profile : [email protected] settings, CABAC : YesFormat settings, ReFrames : 4 framesMuxing mode : Header strippingCodec ID : V_MPEG4/ISO/AVCDuration : 5mn 50sBit rate : 1 800 KbpsWidth : 1 280 pixelsHeight : 720 pixelsDisplay aspect ratio : 16:9Frame rate mode : ConstantFrame rate : 25.000 fpsColor space : YUVChroma subsampling : 4:2:0Bit depth : 8 bitsScan type : ProgressiveBits/(Pixel*Frame) : 0.078Stream size : 72.8 MiB (83%)Writing library : x264 core 129Encoding settings : cabac=1 / ref=3 / deblock=1:0:0 / analyse=0x3:0x113 / me=hex / subme=7 / psy=1 / psy_rd=1.00:0.00 / mixed_ref=1 / me_range=16 / chroma_me=1 / trellis=1 / 8x8dct=1 / cqm=0 / deadzone=21,11 / fast_pskip=1 / chroma_qp_offset=-2 / threads=24 / lookahead_threads=4 / sliced_threads=0 / nr=0 / decimate=1 / interlaced=0 / bluray_compat=0 / constrained_intra=0 / bframes=3 / b_pyramid=2 / b_adapt=1 / b_bias=0 / direct=1 / weightb=1 / open_gop=0 / weightp=2 / keyint=250 / keyint_min=25 / scenecut=40 / intra_refresh=0 / rc_lookahead=40 / rc=abr / mbtree=1 / bitrate=1800 / ratetol=1.0 / qcomp=0.60 / qpmin=0 / qpmax=69 / qpstep=4 / ip_ratio=1.40 / aq=1:1.00Default : YesForced : No
AudioID : 2Format : MPEG AudioFormat version : Version 1Format profile : Layer 3Mode : Joint stereoMode extension : MS StereoMuxing mode : Header strippingCodec ID : A_MPEG/L3Codec ID/Hint : MP3Duration : 5mn 50sBit rate mode : ConstantBit rate : 320 KbpsChannel(s) : 2 channelsSampling rate : 44.1 KHzCompression mode : LossyStream size : 13.4 MiB (15%)Writing library : LAME3.98rEncoding settings : -m j -V 4 -q 2 -lowpass 20.5Default : YesForced : No

Скриншоты

Other forum [Profile] [PM]
Display posts from previous:    
Reply to topic

The time now is: Today 16:08

All times are GMT + 3 Hours



You cannot post new topics in this forum
You cannot reply to topics in this forum
You cannot edit your posts in this forum
You cannot delete your posts in this forum
You cannot vote in polls in this forum
You cannot attach files in this forum
You cannot download files in this forum