Today is a free download without charge Download

Peder - Daylight, Ghost Of A Smile [2010; 2013, Trip-Hop, HDCamRip]

Reply to topic
 
Author
Message

Omen ®

Longevity: 8 years 4 months

Posts: 181087

Торрент-статистика

Post 26-Sep-2013 17:12

[Quote]

Peder - Daylight
Жанр: Indie, Alternative
Продолжительность: 3mn 10s 570ms
Год выпуска: 2010
Описание: Peder - Daylight [feat. Signe Marie Schmidt-Jacobsen] HD 2010
Directed by: Thomas Daneskov & Alexander Topsoe
Producer: Sebastian Birk
Peder - Ghost Of A Smile HD 2013
Directed by: Simon Bonde & Peder
Producer: Christian Thomsen / UitchIscratch
Качество: HDCamRip
Контейнер: MP4
Видео кодек: H.264
Аудио кодек: AAC
Видео: AVC at 5 913 Kbps 1280 x 720 (1.778) at 23.976 fps
Аудио: AAC at 317 Kbps 2 channels, 48.0 KHz

Отчёт MediaInfo / BDInfo

Format : MPEG-4Format profile : Base Media / Version 2Codec ID : mp42File size : 142 MiBDuration : 3mn 10sOverall bit rate : 6 233 KbpsEncoded date : UTC 2010-10-28 09:04:47Tagged date : UTC 2010-10-28 09:04:47
VideoID : 1Format : AVCFormat/Info : Advanced Video CodecFormat profile : [email protected] settings, CABAC : YesFormat settings, ReFrames : 4 framesFormat settings, GOP : M=4, N=33Codec ID : avc1Codec ID/Info : Advanced Video CodingDuration : 3mn 10sBit rate mode : VariableBit rate : 5 913 KbpsMaximum bit rate : 10 000 KbpsWidth : 1 280 pixelsHeight : 720 pixelsDisplay aspect ratio : 16:9Frame rate mode : ConstantFrame rate : 23.976 fpsStandard : NTSCColor space : YUVChroma subsampling : 4:2:0Bit depth : 8 bitsScan type : ProgressiveBits/(Pixel*Frame) : 0.268Stream size : 134 MiB (95%)Language : EnglishEncoded date : UTC 2010-10-28 09:04:47Tagged date : UTC 2010-10-28 09:04:47
AudioID : 2Format : AACFormat/Info : Advanced Audio CodecFormat profile : LCCodec ID : 40Duration : 3mn 10sBit rate mode : VariableBit rate : 317 KbpsMaximum bit rate : 404 KbpsChannel(s) : 2 channelsChannel positions : Front: L RSampling rate : 48.0 KHzCompression mode : LossyStream size : 7.21 MiB (5%)Language : EnglishEncoded date : UTC 2010-10-28 09:04:47Tagged date : UTC 2010-10-28 09:04:47

Скриншоты

Peder - Ghost Of A Smile
Жанр: Indie, Alternative
Продолжительность: 4mn 25s 898ms
Год выпуска: 2013
Описание: Peder - Ghost Of A Smile HD 2013
Directed by: Simon Bonde & Peder
Producer: Christian Thomsen / UitchIscratch
Качество: HDCamRip
Контейнер: MP4
Видео кодек: H.264
Аудио кодек: AAC
Видео: AVC at 4 500 Kbps 1920 x 1080 (1.778) at 25.000 fps
Аудио: AAC at 253 Kbps 2 channels, 48.0 KHz

Отчёт MediaInfo / BDInfo

Format : MPEG-4Format profile : Base Media / Version 2Codec ID : mp42File size : 151 MiBDuration : 4mn 25sOverall bit rate : 4 754 KbpsEncoded date : UTC 2013-09-16 20:06:32Tagged date : UTC 2013-09-16 20:06:32
VideoID : 1Format : AVCFormat/Info : Advanced Video CodecFormat profile : [email protected] settings, CABAC : YesFormat settings, ReFrames : 4 framesFormat settings, GOP : N=1Codec ID : avc1Codec ID/Info : Advanced Video CodingDuration : 4mn 25sBit rate mode : VariableBit rate : 4 500 KbpsWidth : 1 920 pixelsHeight : 1 080 pixelsDisplay aspect ratio : 16:9Frame rate mode : ConstantFrame rate : 25.000 fpsColor space : YUVChroma subsampling : 4:2:0Bit depth : 8 bitsScan type : ProgressiveBits/(Pixel*Frame) : 0.087Stream size : 143 MiB (95%)Writing library : x264 core 129 r2245 bc13772Encoding settings : cabac=1 / ref=3 / deblock=1:0:0 / analyse=0x3:0x113 / me=hex / subme=7 / psy=1 / psy_rd=1.00:0.00 / mixed_ref=1 / me_range=16 / chroma_me=1 / trellis=1 / 8x8dct=1 / cqm=0 / deadzone=21,11 / fast_pskip=1 / chroma_qp_offset=-2 / threads=12 / lookahead_threads=2 / sliced_threads=0 / nr=0 / decimate=1 / interlaced=0 / bluray_compat=0 / constrained_intra=0 / bframes=3 / b_pyramid=2 / b_adapt=1 / b_bias=0 / direct=1 / weightb=1 / open_gop=0 / weightp=2 / keyint=75 / keyint_min=25 / scenecut=40 / intra_refresh=0 / rc_lookahead=40 / rc=2pass / mbtree=1 / bitrate=4500 / ratetol=1.0 / qcomp=0.60 / qpmin=5 / qpmax=69 / qpstep=4 / cplxblur=20.0 / qblur=0.5 / vbv_maxrate=6750 / vbv_bufsize=22500 / nal_hrd=none / ip_ratio=1.40 / aq=1:1.00Encoded date : UTC 2013-09-16 20:06:32Tagged date : UTC 2013-09-16 20:06:32
AudioID : 2Format : AACFormat/Info : Advanced Audio CodecFormat profile : LCCodec ID : 40Duration : 4mn 25sBit rate mode : VariableBit rate : 253 KbpsChannel(s) : 2 channelsChannel positions : Front: L RSampling rate : 48.0 KHzCompression mode : LossyStream size : 8.03 MiB (5%)Encoded date : UTC 2013-09-16 20:06:32Tagged date : UTC 2013-09-16 20:06:32

Скриншоты

Other forum [Profile] [PM]
Display posts from previous:    
Reply to topic

The time now is: Today 06:09

All times are GMT + 3 Hours



You cannot post new topics in this forum
You cannot reply to topics in this forum
You cannot edit your posts in this forum
You cannot delete your posts in this forum
You cannot vote in polls in this forum
You cannot attach files in this forum
You cannot download files in this forum