Today is a free download without charge Download

Helloween & Kai Hansen - Rock in Rio V [2013, Power Metal, HDTV 720p]

Reply to topic
 
Author
Message

Omen ®

Longevity: 8 years 4 months

Posts: 181087

Торрент-статистика

Post 26-Sep-2013 13:05

[Quote]

Helloween & Kai Hansen - Rock in Rio V
Жанр: Power Metal
Продолжительность: 01:01:00
Год выпуска: 2013
Описание:
1. Intro / Walls of Jericho
2. Eagle Fly Free
3. Where the Sinners Go
4. Waiting for the Thunder
5. I'm Alive
6. Live Now!
7. If I Could Fly
8. Power
9. Are You Metal?
10. Dr. Stein (with Kai Hansen)
11. Future World (with Kai Hansen)
12. I Want Out (with Kai Hansen)
Источник: Скачано в сети
Качество: HDTV 720p
Контейнер: MKV
Видео кодек: H.264
Видео: AVC Video, 1280х720, 16:9, 5.9 Мбит/сек, 29,970 кадров/сек
Аудио: AC3 5.1 (48 kHz / 448 kbps)

Отчёт MediaInfo

GeneralUnique ID : 192193732690267723629037987600969648753 (0x90972A9F2A6483E37BBC3B1CD73E4A71)Complete name : D:\Видео\Helloween & Kai Hansen Rock in Rio 2013.mkvFormat : MatroskaFormat version : Version 2File size : 2.80 GiBDuration : 1h 1mnOverall bit rate : 6 502 KbpsWriting application : Lavf54.61.104Writing library : Lavf54.61.104
VideoID : 1Format : AVCFormat/Info : Advanced Video CodecFormat profile : [email protected] settings, CABAC : YesFormat settings, ReFrames : 5 framesCodec ID : V_MPEG4/ISO/AVCDuration : 1h 1mnBit rate : 5 925 KbpsWidth : 1 280 pixelsHeight : 720 pixelsDisplay aspect ratio : 16:9Frame rate mode : ConstantFrame rate : 29.970 fpsColor space : YUVChroma subsampling : 4:2:0Bit depth : 8 bitsScan type : ProgressiveBits/(Pixel*Frame) : 0.215Stream size : 2.55 GiB (91%)Writing library : x264 core 129 r2245 bc13772Encoding settings : cabac=1 / ref=5 / deblock=1:0:0 / analyse=0x3:0x113 / me=umh / subme=8 / psy=1 / psy_rd=1.00:0.00 / mixed_ref=1 / me_range=16 / chroma_me=1 / trellis=1 / 8x8dct=1 / cqm=0 / deadzone=21,11 / fast_pskip=1 / chroma_qp_offset=-2 / threads=12 / lookahead_threads=2 / sliced_threads=0 / nr=0 / decimate=1 / interlaced=0 / bluray_compat=0 / constrained_intra=0 / bframes=3 / b_pyramid=2 / b_adapt=2 / b_bias=0 / direct=3 / weightb=1 / open_gop=0 / weightp=2 / keyint=250 / keyint_min=25 / scenecut=40 / intra_refresh=0 / rc_lookahead=50 / rc=crf / mbtree=1 / crf=20.0 / qcomp=0.60 / qpmin=0 / qpmax=69 / qpstep=4 / ip_ratio=1.40 / aq=1:1.00Default : YesForced : No
AudioID : 2Format : AC-3Format/Info : Audio Coding 3Mode extension : CM (complete main)Format settings, Endianness : BigCodec ID : A_AC3Duration : 1h 1mnBit rate mode : ConstantBit rate : 448 KbpsChannel(s) : 6 channelsChannel positions : Front: L C R, Side: L R, LFESampling rate : 48.0 KHzBit depth : 16 bitsCompression mode : LossyDelay relative to video : 1mn 5sStream size : 198 MiB (7%)Language : detDefault : YesForced : No
Menu00:00:00.000 : :Intro / Walls of Jericho00:03:47.000 : :Eagle Fly Free00:09:00.700 : :Where the Sinners Go00:13:38.000 : :Waiting for the Thunder00:17:41.000 : :I'm Alive00:21:28.500 : :Live Now!00:28:39.500 : :If I Could Fly00:32:41.000 : :Power00:36:47.000 : :Are You Metal?00:41:13.500 : :Dr. Stein00:48:00.500 : :Future World00:53:07.000 : :I Want Out

Скриншоты

Other forum [Profile] [PM]
Display posts from previous:    
Reply to topic

The time now is: Today 18:54

All times are GMT + 3 Hours



You cannot post new topics in this forum
You cannot reply to topics in this forum
You cannot edit your posts in this forum
You cannot delete your posts in this forum
You cannot vote in polls in this forum
You cannot attach files in this forum
You cannot download files in this forum