Today is a free download without charge Download

Доктор Айболит (Давид Черкасский) [1984-1985 гг, мультфильм, анимация, DVB]

Reply to topic
 
Author
Message

Omen ®

Longevity: 7 years 11 months

Posts: 181087

Торрент-статистика

Post 26-Sep-2013 04:56

[Quote]

Доктор Айболит
Жанр: мультфильм, анимация
Год выпуска: 1984-1985
Продолжительность: 01:08:18
Режиссёр: Давид Черкасский
Описание: Доктор Айболит вместе со своими друзьями-животными переживает самые невероятные приключения. Озорной, веселый мультипликационный сериал, с пиратами и погонями, песнями и танцами ...
1. "Доктор Айболит и его звери. 1 серия" 1984г
2. "Бармалей и морские пираты. 2 серия" 1984г.
3. "Варвара – злая сестра Айболита. 3 серия" 1984г.
4. "Коварный план Бармалея. 4 серия" 1985г.
5. "Айболит спешит на помощь. 5 серия" 1985г.
6. "Крокодил и солнце. 6 серия" 1985г.
7. "Спасибо, доктор! 7 серия" 1985г.
Доп. информация: мультильм снят по мотивам произведений Корнея Чуковского

Релиз группы:
Качество видео: DVB
Формат видео: MPEG-PS
Видео: MPEG2 Video, 720x576, 25 fps, 3500 kbps
Аудио: MPEG Audio, 2 сh, 48 kHz, 192 kbps
Трансляция спутникового канала: "Карусель"

MediaInfo

D:\Доктор Айболит\01. Доктор Айболит и его звери. (1984)_DVB by SLuMeP.mpg
General
Complete name : D:\Доктор Айболит\01. Доктор Айболит и его звери. (1984)_DVB by SLuMeP.mpg
Format : MPEG-PS
File size : 257 MiB
Duration : 9mn 39s
Overall bit rate mode : Variable
Overall bit rate : 3 725 Kbps
Writing library : (c) 1998-2010 Womble Multimedia, Inc. / MPEG Video Wizard DVD 5.0.0.114 (01/2010) / Apr 20 2010
Video #224
ID : 224 (0xE0)
Format : MPEG Video
Format version : Version 2
Format profile : [email protected]
Format settings, BVOP : Yes
Format settings, Matrix : Custom
Format settings, GOP : M=3, N=12
Duration : 9mn 39s
Bit rate mode : Variable
Bit rate : 3 459 Kbps
Maximum bit rate : 5 000 Kbps
Width : 720 pixels
Height : 576 pixels
Display aspect ratio : 4:3
Frame rate : 25.000 fps
Standard : PAL
Color space : YUV
Chroma subsampling : 4:2:0
Bit depth : 8 bits
Scan type : Interlaced
Scan order : Top Field First
Compression mode : Lossy
Bits/(Pixel*Frame) : 0.334
Stream size : 239 MiB (93%)
Writing library : (c) 1998-2010 Womble Multimedia, Inc. / MPEG Video Wizard DVD 5.0.0.114 (01/2010) / Apr 20 2010
Audio #192
ID : 192 (0xC0)
Format : MPEG Audio
Format version : Version 1
Format profile : Layer 2
Duration : 9mn 39s
Bit rate mode : Constant
Bit rate : 192 Kbps
Channel(s) : 2 channels
Sampling rate : 48.0 KHz
Compression mode : Lossy
Stream size : 13.3 MiB (5%)
Menu

Скриншоты

Other forum [Profile] [PM]
Similar theme
Forum Topic Author Torrent Replies Last Post
./templates/default/images/folder_dl.gif Фильмы 2011-2020 Удивительное путешествие доктора Дулиттла / Dolittle (Стивен Гейган) [2020 г., приключения, комедия, семейный, фэнтези, BDRip]MVO | HDRezka Studio kilmister777
1 | 0

0 | 600

0

2020-03-31 11:14
kilmister777 Latest
Display posts from previous:    
Reply to topic

The time now is: Today 07:09

All times are GMT + 3 Hours



You cannot post new topics in this forum
You cannot reply to topics in this forum
You cannot edit your posts in this forum
You cannot delete your posts in this forum
You cannot vote in polls in this forum
You cannot attach files in this forum
You cannot download files in this forum