Today is a free download without charge Download

Баран и роза (Калью Курепыльд) [1982, кукольный, для взрослых, TeleSynch]

Reply to topic
 
Author
Message

Omen ®

Longevity: 7 years 11 months

Posts: 181087

Торрент-статистика

Post 26-Sep-2013 04:56

[Quote]

Баран и роза
Страна: СССР
Студия: Таллинфильм
Жанр: кукольный, для взрослых
Продолжительность: 00:07:03
Год выпуска: 1982
Перевод: Не требуется
Русские субтитры: нет
Режиссёр: Калью Курепыльд
Описание: Сатирический кукольный фильм для взрослых состоит из двух сюжетов.
"Пикник"- Рассказывает о весёлой пирушке зверей в ...квартире, которую они оставили в безобразном состоянии, подобно некоторым отдыхающим на природе людям.
"Вкус"- о разном отношении к распустившейся розе. Пёс просыпается от её аромата, петух удивлённо кукарекает, свинья отворачивается, а баран пожирает стебель и листья розы.
(Информация взята из каталога кинофильмов 1983 года)
Доп. информация: Фильм оцифрован с киноплёнки 35-мм, из личной коллекции ENKVANT
Качество: TeleSynch
Формат: MPG
Видео: 720x480 (4:3) @ 640x480, 29.970 fps, MPEG-2 Video, ~6388 Kbps, 0.617 bits/pixel
Аудио: 48.0 KHz, AC3, 1 ch, 192 Kbps
Субтитры: отсутствуют

MediaInfo

GeneralComplete name : Баран и роза (Таллинфильм) 1982.mpgFormat : MPEG-PSFile size : 339 MiBDuration : 7mn 3sOverall bit rate mode : VariableOverall bit rate : 6 714 Kbps
VideoID : 224 (0xE0)Format : MPEG VideoFormat version : Version 2Format profile : [email protected] settings, BVOP : YesFormat settings, Matrix : CustomFormat settings, GOP : VariableDuration : 7mn 3sBit rate mode : VariableBit rate : 6 388 KbpsMaximum bit rate : 9 586 KbpsWidth : 720 pixelsHeight : 480 pixelsDisplay aspect ratio : 4:3Frame rate : 29.970 fpsStandard : NTSCColor space : YUVChroma subsampling : 4:2:0Bit depth : 8 bitsScan type : InterlacedScan order : Bottom Field FirstCompression mode : LossyBits/(Pixel*Frame) : 0.617Time code of first frame : 00:00:00;00Time code source : Group of pictures headerStream size : 323 MiB (95%)
AudioID : 189 (0xBD)-128 (0x80)Format : AC-3Format/Info : Audio Coding 3Mode extension : CM (complete main)Format settings, Endianness : BigMuxing mode : DVD-VideoDuration : 7mn 3sBit rate mode : ConstantBit rate : 192 KbpsChannel(s) : 1 channelChannel positions : Front: CSampling rate : 48.0 KHzBit depth : 16 bitsCompression mode : LossyStream size : 9.70 MiB (3%)

Скриншоты

Other forum [Profile] [PM]
Display posts from previous:    
Reply to topic

The time now is: Today 05:55

All times are GMT + 3 Hours



You cannot post new topics in this forum
You cannot reply to topics in this forum
You cannot edit your posts in this forum
You cannot delete your posts in this forum
You cannot vote in polls in this forum
You cannot attach files in this forum
You cannot download files in this forum