Today is a free download without charge Download

Подарок из Африки (Арнольд Буров) [1975, кукольная анимация, TeleSynch]

Reply to topic
 
Author
Message

Omen ®

Longevity: 7 years 11 months

Posts: 181087

Торрент-статистика

Post 26-Sep-2013 04:56

[Quote]

Подарок из Африки
Страна: СССР (Рижская киностудия)
Жанр: кукольная анимация
Продолжительность: 00:09:53
Год выпуска: 1975
Перевод: Профессиональный (дублированный)
Русские субтитры: нет
Режиссёр: Арнольд Буров
Роли озвучивали: Дикторский текст: А. Уманова
Описание: Мальчишкам из клуба "Юных натуралистов" прислали посылку из Африки. В посылке оказалось яйцо. Вскоре из яйца вылупился....крокодильчик. И как обычно это случается, крокодильчик убежал. Мальчики по всему городку развесили объявления о пропаже крокодила. И в городке началась паника.
Доп. информация: Фильм оцифрован с киноплёнки из личной коллекции
Качество: TeleSynch
Формат: MPG
Видео: 720x576 (4:3) @ 768x576, 25.000 fps, MPEG-2 Video, ~9236 Kbps, 0.891 bits/pixel
Аудио: 48.0 KHz, AC3, 1 ch, 192 Kbps
Субтитры: отсутствуют

Скриншоты

MediaInfo

GeneralComplete name : Подарок из Африки (Рижская киностудия) 1975.mpgFormat : MPEG-PSFile size : 680 MiBDuration : 9mn 53sOverall bit rate mode : VariableOverall bit rate : 9 619 Kbps
VideoID : 224 (0xE0)Format : MPEG VideoFormat version : Version 2Format profile : [email protected] settings, BVOP : YesFormat settings, Matrix : DefaultFormat settings, GOP : VariableDuration : 9mn 53sBit rate mode : VariableBit rate : 9 300 KbpsWidth : 720 pixelsHeight : 576 pixelsDisplay aspect ratio : 4:3Frame rate : 25.000 fpsStandard : PALColor space : YUVChroma subsampling : 4:2:0Bit depth : 8 bitsScan type : InterlacedScan order : Top Field FirstCompression mode : LossyBits/(Pixel*Frame) : 0.897Time code of first frame : 00:00:00:00Time code source : Group of pictures headerStream size : 653 MiB (96%)Color primaries : BT.601 PALTransfer characteristics : BT.470 System B, BT.470 System GMatrix coefficients : BT.601
AudioID : 189 (0xBD)-128 (0x80)Format : AC-3Format/Info : Audio Coding 3Mode extension : CM (complete main)Format settings, Endianness : BigMuxing mode : DVD-VideoDuration : 9mn 53sBit rate mode : ConstantBit rate : 192 KbpsChannel(s) : 1 channelChannel positions : Front: CSampling rate : 48.0 KHzBit depth : 16 bitsCompression mode : LossyStream size : 13.6 MiB (2%)
Other forum [Profile] [PM]
Display posts from previous:    
Reply to topic

The time now is: Today 03:51

All times are GMT + 3 Hours



You cannot post new topics in this forum
You cannot reply to topics in this forum
You cannot edit your posts in this forum
You cannot delete your posts in this forum
You cannot vote in polls in this forum
You cannot attach files in this forum
You cannot download files in this forum