Today is a free download without charge Download

Клабуш в космосе (Аво Пайстик) [1981, Рисованная фантазия, TeleSynch]

Reply to topic
 
Author
Message

Omen ®

Longevity: 7 years 11 months

Posts: 181087

Торрент-статистика

Post 26-Sep-2013 04:56

[Quote]

Клабуш в космосе
Страна: СССР
Студия: Таллинфильм
Жанр: Рисованная фантазия
Продолжительность: 00:15:37
Год выпуска: 1981
Русские субтитры: нет
Режиссёр: Аво Пайстик
Описание: Фантастические фильм о космическом путешествии Клабуша, Нинни и Пёссика, их помощи жителям другой планеты в освобождении от ига зловещего Гриба и превращении родины в цветущий сад.
Доп. информация: Русская версия мультфильма (русские начальные титры)
Качество: TeleSynch
Формат: MPG
Видео: 720x576 (4:3) @ 768x576, 25.000 fps, MPEG-2 Video, ~5819 Kbps, 0.561 bits/pixel
Аудио: 48.0 KHz, AC3, 1 ch, 192 kbps
Субтитры: нет

MediaInfo

GeneralComplete name : Клабуш в космосе (Таллинфильм) 1981.mpgFormat : MPEG-PSFile size : 685 MiBDuration : 15mn 37sOverall bit rate mode : VariableOverall bit rate : 6 133 Kbps
VideoID : 224 (0xE0)Format : MPEG VideoFormat version : Version 2Format profile : [email protected] settings, BVOP : YesFormat settings, Matrix : DefaultFormat settings, GOP : VariableDuration : 15mn 37sBit rate mode : VariableBit rate : 5 819 KbpsMaximum bit rate : 9 400 KbpsWidth : 720 pixelsHeight : 576 pixelsDisplay aspect ratio : 4:3Frame rate : 25.000 fpsStandard : PALColor space : YUVChroma subsampling : 4:2:0Bit depth : 8 bitsScan type : InterlacedScan order : Top Field FirstCompression mode : LossyBits/(Pixel*Frame) : 0.561Time code of first frame : 00:00:00:00Time code source : Group of pictures headerStream size : 650 MiB (95%)Color primaries : BT.601 PALTransfer characteristics : BT.470 System B, BT.470 System GMatrix coefficients : BT.601
AudioID : 189 (0xBD)-128 (0x80)Format : AC-3Format/Info : Audio Coding 3Mode extension : CM (complete main)Format settings, Endianness : BigMuxing mode : DVD-VideoDuration : 15mn 37sBit rate mode : ConstantBit rate : 192 KbpsChannel(s) : 1 channelChannel positions : Front: CSampling rate : 48.0 KHzBit depth : 16 bitsCompression mode : LossyStream size : 21.5 MiB (3%)

Скриншоты

Other forum [Profile] [PM]
Display posts from previous:    
Reply to topic

The time now is: Today 20:19

All times are GMT + 3 Hours



You cannot post new topics in this forum
You cannot reply to topics in this forum
You cannot edit your posts in this forum
You cannot delete your posts in this forum
You cannot vote in polls in this forum
You cannot attach files in this forum
You cannot download files in this forum