Today is a free download without charge Download

Iron Maiden-Rock In Rio 5 [2013, Heavy Metal, HDTV 720p]

Reply to topic
 
Author
Message

Omen ®

Longevity: 8 years 4 months

Posts: 181087

Торрент-статистика

Post 26-Sep-2013 04:56

[Quote]

Iron Maiden-Rock In Rio 2013
Жанр: Heavy Metal
Продолжительность: 01:51:41
Год выпуска: 2013
Трек-лист:
Moonchild
Can I Play with Madness
The Prisoner
2 Minutes to Midnight
Afraid to Shoot Strangers
The Trooper
The Number of the Beast
Phantom of the Opera
Run to the Hills
Wasted Years
Seventh Son of a Seventh Son
The Clairvoyant
Fear of the Dark
Iron Maiden
Encore:
Churchill's Speech
Aces High
The Evil That Men Do
Running Free
Качество: HDTV 720p
Контейнер: MKV
Видео кодек: H.264
Аудио кодек: AС-3
Видео: 4873 Кбит/сек,1280*720(16:9), 29,970 кадров/сек,AVC([email protected])
Аудио: 448 Кбит/сек,48,0 КГц,6 каналов,AC-3

Отчёт MediaInfo / BDInfo

ОбщееУникальный идентификатор : 281256138191509381663199128216431866050 (0xD397F63C5D0FBB4F120641925A49B0C2)Полное имя : C:\Users\Andrey.k\Desktop\Rock.in.Rio.2013.IRON.MAIDEN.720p.HDTV.x264-FHxHD.mkvФормат : MatroskaВерсия формата : Version 2Размер файла : 4,23 ГбайтПродолжительность : 1 ч. 51 м.Общий поток : 5429 Кбит/секПрограмма кодирования : Lavf54.61.104Библиотека кодирования : Lavf54.61.104
ВидеоИдентификатор : 1Формат : AVCФормат/Информация : Advanced Video CodecПрофиль формата : [email protected]Параметр CABAC формата : ДаПараметр ReFrames формата : 5 кадровИдентификатор кодека : V_MPEG4/ISO/AVCПродолжительность : 1 ч. 51 м.Битрейт : 4873 Кбит/секШирина : 1280 пикселейВысота : 720 пикселейСоотношение сторон : 16:9Режим частоты кадров : ПостоянныйЧастота кадров : 29,970 кадров/секЦветовое пространство : YUVСубдискретизация насыщенности : 4:2:0Битовая глубина : 8 битТип развёртки : ПрогрессивнаяБит/(Пиксели*Кадры) : 0.176Размер потока : 3,80 Гбайт (90%)Библиотека кодирования : x264 core 129 r2245 bc13772Настройки программы : cabac=1 / ref=5 / deblock=1:0:0 / analyse=0x3:0x113 / me=umh / subme=8 / psy=1 / psy_rd=1.00:0.00 / mixed_ref=1 / me_range=16 / chroma_me=1 / trellis=1 / 8x8dct=1 / cqm=0 / deadzone=21,11 / fast_pskip=1 / chroma_qp_offset=-2 / threads=12 / lookahead_threads=2 / sliced_threads=0 / nr=0 / decimate=1 / interlaced=0 / bluray_compat=0 / constrained_intra=0 / bframes=3 / b_pyramid=2 / b_adapt=2 / b_bias=0 / direct=3 / weightb=1 / open_gop=0 / weightp=2 / keyint=250 / keyint_min=25 / scenecut=40 / intra_refresh=0 / rc_lookahead=50 / rc=crf / mbtree=1 / crf=20.0 / qcomp=0.60 / qpmin=0 / qpmax=69 / qpstep=4 / ip_ratio=1.40 / aq=1:1.00Default : ДаForced : Нет
АудиоИдентификатор : 2Формат : AC-3Формат/Информация : Audio Coding 3Расширение режима : CM (complete main)Параметр Endianness формата : BigИдентификатор кодека : A_AC3Продолжительность : 1 ч. 51 м.Вид битрейта : ПостоянныйБитрейт : 448 Кбит/секКаналы : 6 каналовРасположение каналов : Front: L C R, Side: L R, LFEЧастота : 48,0 КГцБитовая глубина : 16 битМетод сжатия : С потерямиЗадержка видео : 4 мс.Размер потока : 358 Мбайт (8%)Язык : detDefault : ДаForced : Нет

Скриншоты


Other forum [Profile] [PM]
Similar theme
Forum Topic Author Torrent Replies Last Post
./templates/default/images/folder_dl.gif Rock (Hard\'n\'Heavy) [CD] Paul Dianno (ex-Iron Maiden) - Wrathchild - The Anthology - 2012, FLAC (image+.cue), lossless Omen
1 | 0

0 | 1309

9

2015-04-24 03:00
Omen Latest
Display posts from previous:    
Reply to topic

The time now is: Today 18:59

All times are GMT + 3 Hours



You cannot post new topics in this forum
You cannot reply to topics in this forum
You cannot edit your posts in this forum
You cannot delete your posts in this forum
You cannot vote in polls in this forum
You cannot attach files in this forum
You cannot download files in this forum