Сегодня идет свободное скачивание без начисления Download

12 стульев (Леонид Гайдай) [1971, комедия, DVDRip]

Ответить на тему
 
Автор
Сообщение

Delia ®

Пол:

Стаж: 8 лет 5 месяцев

Сообщений: 1822

Торрент-статистика

Пост 01-Окт-2011 17:57

[Цитировать]

12 стульев Жанр: комедия
Cтрана: СССР
Год выпуска: 1971
Продолжительность: 01:16:58 + 01:15:37
Режиссёр: Леонид Гайдай
Kомпозитор: Александр Зацепин
В ролях:Арчил Гомиашвили ,Сергей Филиппов, Михаил Пуговкин, Наталья Крачковская, Наталья Воробьева, Гликерия Богданова-Чеснокова, Нина Гребешкова, Юрий Никулин, Наталья Варлей, Клара Румянова
Описание:
Во время революции и последовавшего за ней краткого периода военного коммунизма многие прятали свои ценности как можно надежнее. И вот Ипполит Матвеевич Воробьянинов, бывший Старгородский предводитель дворянства и светский лев, а ныне — скромный делопроизводитель ЗАГСа, узнает от умирающей тещи, что некогда она спрятала свои бриллианты и жемчуга в общей сложности на 150 000 золотых рублей под обивку одного из двенадцати стульев гостиного гарнитура работы известного мастера Гамбса.
Бросив все, Воробьянинов бросается на поиски стульев, в чем ему, конечно же, небескорыстно, берется помочь молодой авантюрист, «великий комбинатор» Остап Бендер. Найти следы разрозненного гарнитура непросто. Не облегчает положения и то, что перед смертью теща Воробьянинова открыла тайну сокровищ и своему исповеднику, отцу Федору, всю жизнь мечтавшему о собственном свечном заводике в Самаре…
Качество видео: DVDRip, исходник DVD9
Формат видео: AVI
Видео 1 серия: 640x480 (1.33:1), 25 fps, XviD build 61 ~879 kbps avg, 0.11 bit/pixel
Видео 2 серия: 640x480 (1.33:1), 25 fps, XviD build 61 ~899 kbps avg, 0.12 bit/pixel
Аудио: 48 kHz, MPEG Layer 3, 2 ch, ~128.00 kbps avg

Знаете ли вы, что...

  • Роман Ильфа и Петрова собирался экранизировать Георгий Данелия, но потом «перегорел» и подарил съёмки Гайдаю, который об этом давно мечтал.
  • На роль Остапа пробовалось более 20 актёров: среди них были Владимир Высоцкий, Алексей Баталов, Олег Борисов, Валентин Гафт, Андрей Миронов.
  • Арчила Гомиашвили режиссёр нашёл в провинции. Из-за болезни (по другой версии — из-за сильного кавказского акцента) артист не смог озвучить Бендера, в фильме он говорит голосом Юрия Саранцева.
  • Кандидатуру Гомиашвили не одобрило «Госкино». Наверху стали возмущаться: «Почему Бендер станет грузином?» На что Гайдай тут же парировал: «Так ведь папа у Остапа турецкоподданный. А почему маме не быть грузинкой?»
  • «Женщиной необъятных размеров с арбузными грудями» могли стать Галина Волчек и Нонна Мордюкова. Но Мордюкова, так блистательно сыгравшая в «Бриллиантовой руке», на эту роль не подошла, показалась не смешной. Предпочтение собирались отдать Галине Волчек, но тут звукооператор из команды Гайдая привёл на съемочную площадку свою жену, студентку ВГИКа Наталью Крачковскую. Гайдай глянул на неё и сказал: «Вот она, мечта поэта».
  • Савелий Крамаров сыграл в обоих советских фильмах «12 стульев». В этом фильме он сыграл одноглазого шахматиста, а в фильме 1976 года — слесаря Полесова.
  • Георгий Вицин так же сыграл в обоих советских фильмах «12 стульев». В этом фильме он сыграл монтера Мечникова, а в фильме 1976 года — Безенчука.
  • Занимает по посещаемости 96-е место среди отечественных фильмов за всю историю советского кинопроката

MediaInfo

Общее
Полное имя : ...12 стульев_1c.avi
Формат : AVI
Формат/Информация : Audio Video Interleave
Размер файла : 560 Мбайт
Продолжительность : 1 ч. 16 м.
Общий поток : 1017 Кбит/сек
Программа кодирования : VirtualDubMod 1.5.10.3 | www.virtualdub-fr.org || (build 2550/release)
Библиотека кодирования : VirtualDubMod build 2550/release
Видео
Идентификатор : 0
Формат : MPEG-4 Visual
Профиль формата : Advanced [email protected]
Параметр BVOP формата : 1
Параметр QPel формата : Нет
Параметр GMC формата : Без точки перехода
Параметр матрицы формата : Выборочная
Идентификатор кодека : XVID
Идентификатор кодека/Подсказка : XviD
Продолжительность : 1 ч. 16 м.
Битрейт : 880 Кбит/сек
Ширина : 640 пикс.
Высота : 480 пикс.
Соотношение сторон : 4:3
Частота кадров : 25,000 кадр/сек
Цветовое пространство : YUV
Подвыборка цветности : 4:2:0
Битовая глубина : 8 бит
Тип развёртки : Прогрессивная
Метод сжатия : С потерями
Бит/(Пиксели*Кадры) : 0.115
Размер потока : 484 Мбайт (86%)
Библиотека кодирования : XviD 61
Аудио
Идентификатор : 1
Формат : MPEG Audio
Версия формата : Version 1
Профиль формата : Layer 3
Идентификатор кодека : 55
Идентификатор кодека/Подсказка : MP3
Продолжительность : 1 ч. 16 м.
Вид битрейта : Постоянный
Битрейт : 128 Кбит/сек
Каналы : 2 канала
Частота : 48,0 КГц
Метод сжатия : С потерями
Размер потока : 70,4 Мбайт (13%)
Выравнивание : Соединение по промежуткам
Продолжительность промежутка : 40 мс. (1,00 видеокадр)
Время предзагрузки промежутка : 504 ms
Библиотека кодирования : LAME3.98r
Настройки программы : -m s -V 4 -q 0 -lowpass 17 -b 128
Общее
Полное имя : ...12 стульев_2c.avi
Формат : AVI
Формат/Информация : Audio Video Interleave
Размер файла : 561 Мбайт
Продолжительность : 1 ч. 15 м.
Общий поток : 1037 Кбит/сек
Программа кодирования : VirtualDubMod 1.5.10.3 | www.virtualdub-fr.org || (build 2550/release)
Библиотека кодирования : VirtualDubMod build 2550/release
Видео
Идентификатор : 0
Формат : MPEG-4 Visual
Профиль формата : Advanced [email protected]
Параметр BVOP формата : 1
Параметр QPel формата : Нет
Параметр GMC формата : Без точки перехода
Параметр матрицы формата : Выборочная
Идентификатор кодека : XVID
Идентификатор кодека/Подсказка : XviD
Продолжительность : 1 ч. 15 м.
Битрейт : 899 Кбит/сек
Ширина : 640 пикс.
Высота : 480 пикс.
Соотношение сторон : 4:3
Частота кадров : 25,000 кадр/сек
Цветовое пространство : YUV
Подвыборка цветности : 4:2:0
Битовая глубина : 8 бит
Тип развёртки : Прогрессивная
Метод сжатия : С потерями
Бит/(Пиксели*Кадры) : 0.117
Размер потока : 486 Мбайт (87%)
Библиотека кодирования : XviD 61
Аудио
Идентификатор : 1
Формат : MPEG Audio
Версия формата : Version 1
Профиль формата : Layer 3
Идентификатор кодека : 55
Идентификатор кодека/Подсказка : MP3
Продолжительность : 1 ч. 15 м.
Вид битрейта : Постоянный
Битрейт : 128 Кбит/сек
Каналы : 2 канала
Частота : 48,0 КГц
Метод сжатия : С потерями
Размер потока : 69,2 Мбайт (12%)
Выравнивание : Соединение по промежуткам
Продолжительность промежутка : 40 мс. (1,00 видеокадр)
Время предзагрузки промежутка : 504 ms
Библиотека кодирования : LAME3.98r
Настройки программы : -m s -V 4 -q 0 -lowpass 17 -b 128

Скриншоты

         

_________________
Человек – это канат, натянутый между животным и сверхчеловеком, – канат над пропастью.
В человеке ценно то, что он мост, а не цель. Фридрих Ницше
Вне форума [Профиль] [ЛС]
Показать сообщения:    
Ответить на тему

Текущее время: Сегодня 14:47

Часовой пояс: GMT + 3



Вы не можете начинать темы
Вы не можете отвечать на сообщения
Вы не можете редактировать свои сообщения
Вы не можете удалять свои сообщения
Вы не можете голосовать в опросах
Вы не можете прикреплять файлы к сообщениям
Вы не можете скачивать файлы