Today is a free download without charge Download

Необыкновенная охота (Отар Андроникашвили) [1980, мультфильм для взрослых, TeleSynch]

Reply to topic
 
Author
Message

Omen ®

Longevity: 7 years 11 months

Posts: 181087

Торрент-статистика

Post 25-Sep-2013 10:08

[Quote]

Необыкновенная охота
Страна: СССР
Студия: Грузия-фильм
Жанр: для взрослых
Продолжительность: 00:08:39
Год выпуска: 1980
Русские субтитры: нет
Режиссёр: Отар Андроникашвили
Описание: Охотник решил сходить на охоту. Но пока ждал транспорт, задремал на остановке. И приснился ему сон, в котором его охота оказалась очень неудачной, в связи с тем, что место, куда он собирался ехать, было настолько загрязнено, что охота закончилась достаточно плачевно.
Качество: TeleSynch
Формат: MPG
Видео: 720x576 (4:3) @ 768x576, 25.000 fps, MPEG-2 Video, ~6671 Kbps, 0.643 bits/pixel
Аудио: 48.0 KHz, AC3, 1 ch, 192 Kbps
Субтитры: отсутствуют

MediaInfo

GeneralComplete name : Необыкновенная охота (Грузия-фильм) 1980.mpgFormat : MPEG-PSFile size : 433 MiBDuration : 8mn 38sOverall bit rate mode : VariableOverall bit rate : 7 002 Kbps
VideoID : 224 (0xE0)Format : MPEG VideoFormat version : Version 2Format profile : [email protected] settings, BVOP : YesFormat settings, Matrix : DefaultFormat settings, GOP : VariableDuration : 8mn 38sBit rate mode : VariableBit rate : 6 671 KbpsMaximum bit rate : 9 400 KbpsWidth : 720 pixelsHeight : 576 pixelsDisplay aspect ratio : 4:3Frame rate : 25.000 fpsStandard : PALColor space : YUVChroma subsampling : 4:2:0Bit depth : 8 bitsScan type : InterlacedScan order : Top Field FirstCompression mode : LossyBits/(Pixel*Frame) : 0.643Time code of first frame : 00:00:00:00Time code source : Group of pictures headerStream size : 413 MiB (95%)Color primaries : BT.601 PALTransfer characteristics : BT.470 System B, BT.470 System GMatrix coefficients : BT.601
AudioID : 189 (0xBD)-128 (0x80)Format : AC-3Format/Info : Audio Coding 3Mode extension : CM (complete main)Format settings, Endianness : BigMuxing mode : DVD-VideoDuration : 8mn 38sBit rate mode : ConstantBit rate : 192 KbpsChannel(s) : 1 channelChannel positions : Front: CSampling rate : 48.0 KHzBit depth : 16 bitsCompression mode : LossyStream size : 11.9 MiB (3%)

Скриншоты

Other forum [Profile] [PM]
Display posts from previous:    
Reply to topic

The time now is: Today 11:23

All times are GMT + 3 Hours



You cannot post new topics in this forum
You cannot reply to topics in this forum
You cannot edit your posts in this forum
You cannot delete your posts in this forum
You cannot vote in polls in this forum
You cannot attach files in this forum
You cannot download files in this forum