Today is a free download without charge Download

Чаромора и капитан Трумм (Хейно Парс) [1978, кукольная анимация, TeleSynch]

Reply to topic
 
Author
Message

Omen ®

Longevity: 7 years 11 months

Posts: 181087

Торрент-статистика

Post 25-Sep-2013 10:08

[Quote]

Чаромора и капитан Трумм
Страна: СССР
Студия: Таллинфильм
Жанр: кукольная анимация
Продолжительность: 00:19:23
Год выпуска: 1978
Русские субтитры: нет
Режиссёр: Хейно Парс
Роли озвучивали: Эйно Баскин, Ита Эвер, Карл Калкун, Каарел Тоом
Описание: Очередная серия приключений доброй колдуньи Чароморы и её друга капитана Трумма.
Доп. информация: Фильм оцифрован с киноплёнки 16-мм из личной коллекции.
Качество: TeleSynch
Формат: MPG
Видео: 720x576 (4:3) @ 768x576, 25.000 fps, MPEG-2 Video, ~5031 Kbps, 0.485 bits/pixel
Аудио: 48.0 KHz, AC3, 1 ch, 192 Kbps
Субтитры: отсутствуют

MediaInfo

GeneralComplete name : Чаромора и капитан Трумм (Таллинфильм) 1978.mpgFormat : MPEG-PSFile size : 739 MiBDuration : 19mn 23sOverall bit rate mode : VariableOverall bit rate : 5 330 Kbps
VideoID : 224 (0xE0)Format : MPEG VideoFormat version : Version 2Format profile : [email protected] settings, BVOP : YesFormat settings, Matrix : DefaultFormat settings, GOP : VariableDuration : 19mn 23sBit rate mode : VariableBit rate : 5 031 KbpsMaximum bit rate : 9 400 KbpsWidth : 720 pixelsHeight : 576 pixelsDisplay aspect ratio : 4:3Frame rate : 25.000 fpsStandard : PALColor space : YUVChroma subsampling : 4:2:0Bit depth : 8 bitsScan type : InterlacedScan order : Top Field FirstCompression mode : LossyBits/(Pixel*Frame) : 0.485Time code of first frame : 00:00:00:00Time code source : Group of pictures headerStream size : 698 MiB (94%)Color primaries : BT.601 PALTransfer characteristics : BT.470 System B, BT.470 System GMatrix coefficients : BT.601
AudioID : 189 (0xBD)-128 (0x80)Format : AC-3Format/Info : Audio Coding 3Mode extension : CM (complete main)Format settings, Endianness : BigMuxing mode : DVD-VideoDuration : 19mn 23sBit rate mode : ConstantBit rate : 192 KbpsChannel(s) : 1 channelChannel positions : Front: CSampling rate : 48.0 KHzBit depth : 16 bitsCompression mode : LossyStream size : 26.6 MiB (4%)

Скриншоты

Other forum [Profile] [PM]
Display posts from previous:    
Reply to topic

The time now is: Today 14:25

All times are GMT + 3 Hours



You cannot post new topics in this forum
You cannot reply to topics in this forum
You cannot edit your posts in this forum
You cannot delete your posts in this forum
You cannot vote in polls in this forum
You cannot attach files in this forum
You cannot download files in this forum