Today is a free download without charge Download

Хождение по мукам (Василий Ордынский) [1974 - 1977, Драма, Киноповесть, SATRip - AVC]

Reply to topic
 
Author
Message

Delia ®

Gender:

Longevity: 9 years 9 months

Posts: 1821

Торрент-статистика

Post 01-Oct-2011 17:04

[Quote]

Хождение по мукам
Жанр: Драма, Киноповесть
Год выпуска: 1974 - 1977
Cтрана: СССР
Продолжительность: 15:50:00
Режиссер: Василий Ордынский
Сценарий: Василий Ордынский, Олег Стукалов
Композитор: Юрий Буцко
В ролях: Юрий Соломин, Ирина Алфёрова, Светлана Пенкина, Михаил Ножкин, Вячеслав Езепов, Михаил Козаков, Георгий Бурков, Анатолий Кацынский, Александр Пашутин, Инна Гулая, Валерий Погорельцев, Лаймонас Норейка, Владимир Комратов, Александр Лазарев (старший), Сергей Никоненко, Вера Комисарова, Николай Ерёменко (младший), Роман Хомятов, Петр Любешкин, Лев Дуров, Анатолий Борисов, Юрий Каюров, Николай Афанасьев, Владимир Гостюхин, Андрей Юренев, Татьяна Распутина, Евгений Казаков, Валерий Зотов
Описание: Телесериал по роману А.Толстого. История четырех представителей интеллигенции, ввергнутых в водоворот революции и гражданской войны.
Петербург, 1914 год. Предреволюционное буржуазное общество, декаденствующая интеллигенция — приметы этого смутного времени. В центре внимания — сестры Булавины — Даша и Ката, их личная жизнь, любовь, увлечения, сердечные драмы.

По одноименной трилогии Алексея Толстого.

Качество видео: SATRip - AVC
Формат видео: MKV
Видео 01-06: 704x528 (1.33:1), 25 fps, x.264 ~1200 kbps avg, 0.13 bit/pixel
Видео 07-13: 704x528 (1.33:1), 25 fps, x.264 ~1060 kbps avg, 0.12 bit/pixel
Аудио: 48 kHz, AC3, 2 ch, ~192.00 kbps avg

MediaInfo / x264 log:

01-06:

MediaInfo:

Format : Matroska
File size : 789 MiB
Duration : 1h 19mn
Overall bit rate : 1 392 Kbps
Encoded date : UTC 2011-02-10 08:50:09
Writing application : mkvmerge v4.4.0 ('Die Wiederkehr') сборка от Dec 25 2010 23:32:50
Writing library : libebml v1.0.0 + libmatroska v1.0.0
Video
ID : 1
Format : AVC
Format/Info : Advanced Video Codec
Format profile : [email protected]
Format settings, CABAC : Yes
Format settings, ReFrames : 11 frames
Codec ID : V_MPEG4/ISO/AVC
Duration : 1h 19mn
Bit rate : 1 198 Kbps
Width : 704 pixels
Height : 528 pixels
Display aspect ratio : 4:3
Frame rate : 25.000 fps
Color space : YUV
Chroma subsampling : 4:2:0
Bit depth : 8 bits
Scan type : Progressive
Bits/(Pixel*Frame) : 0.129
Stream size : 665 MiB (84%)
Title : Rip by iriston
Writing library : x264 core 112 r1834 a51816a
Encoding settings : cabac=1 / ref=11 / deblock=1:-2:-1 / analyse=0x3:0x133 / me=umh / subme=10 / psy=1 / psy_rd=1.00:0.20 / mixed_ref=1 / me_range=16 / chroma_me=1 / trellis=2 / 8x8dct=1 / cqm=0 / deadzone=21,11 / fast_pskip=0 / chroma_qp_offset=-3 / threads=12 / sliced_threads=0 / nr=0 / decimate=0 / interlaced=0 / constrained_intra=0 / bframes=8 / b_pyramid=2 / b_adapt=2 / b_bias=0 / direct=3 / weightb=1 / open_gop=0 / weightp=2 / keyint=250 / keyint_min=25 / scenecut=40 / intra_refresh=0 / rc_lookahead=60 / rc=2pass / mbtree=1 / bitrate=1198 / ratetol=1.0 / qcomp=0.60 / qpmin=0 / qpmax=51 / qpstep=4 / cplxblur=20.0 / qblur=0.5 / ip_ratio=1.40 / aq=2:1.00
Language : Russian
Matrix coefficients : BT.470-6 System B, BT.470-6 System G, BT.601-6 625, BT.1358 625, BT.1700 625 PAL, BT.1700 625 SECAM, IEC 61966-2-4 601
Audio
ID : 2
Format : AC-3
Format/Info : Audio Coding 3
Mode extension : CM (complete main)
Codec ID : A_AC3
Duration : 1h 19mn
Bit rate mode : Constant
Bit rate : 192 Kbps
Channel(s) : 2 channels
Channel positions : Front: L R
Sampling rate : 48.0 KHz
Bit depth : 16 bits
Compression mode : Lossy
Stream size : 109 MiB (14%)
Language : Russian

x264 log:

avs [info]: 704x528p 1:1 @ 25/1 fps (cfr)
x264 [info]: using SAR=1/1
x264 [info]: using cpu capabilities: MMX2 SSE2Fast SSSE3 FastShuffle SSE4.2
x264 [info]: profile High, level 3.1
x264 [info]: frame I:632 Avg QP:16.20 size: 47836
x264 [info]: frame P:26807 Avg QP:19.40 size: 17781
x264 [info]: frame B:91499 Avg QP:24.56 size: 2246
x264 [info]: consecutive B-frames: 1.3% 2.3% 8.9% 22.9% 24.7% 38.5% 1.3% 0.2% 0.1%
x264 [info]: mb I I16..4: 8.4% 72.8% 18.8%
x264 [info]: mb P I16..4: 2.4% 8.5% 1.1% P16..4: 49.7% 24.3% 9.1% 0.7% 0.9% skip: 3.3%
x264 [info]: mb B I16..4: 0.1% 0.3% 0.0% B16..8: 38.2% 6.2% 1.2% direct: 3.0% skip:51.1% L0:37.9% L1:43.1% BI:19.0%
x264 [info]: 8x8 transform intra:71.2% inter:60.1%
x264 [info]: direct mvs spatial:99.7% temporal:0.3%
x264 [info]: coded y,uvDC,uvAC intra: 77.0% 64.6% 33.3% inter: 17.0% 13.9% 4.7%
x264 [info]: i16 v,h,dc,p: 32% 14% 14% 40%
x264 [info]: i8 v,h,dc,ddl,ddr,vr,hd,vl,hu: 19% 11% 10% 8% 9% 11% 10% 12% 11%
x264 [info]: i4 v,h,dc,ddl,ddr,vr,hd,vl,hu: 17% 11% 6% 8% 12% 13% 11% 11% 11%
x264 [info]: i8c dc,h,v,p: 40% 24% 25% 10%
x264 [info]: Weighted P-Frames: Y:24.8% UV:8.9%
x264 [info]: ref P L0: 47.5% 14.3% 15.2% 6.6% 4.7% 3.6% 2.9% 1.7% 1.4% 1.1% 0.9% 0.3% 0.0%
x264 [info]: ref B L0: 88.3% 7.7% 1.8% 0.8% 0.5% 0.4% 0.3% 0.2% 0.1% 0.1%
x264 [info]: ref B L1: 97.4% 2.6%
x264 [info]: kb/s:1197.86
-

07-13:

MediaInfo:

Format : Matroska
File size : 655 MiB
Duration : 1h 12mn
Overall bit rate : 1 258 Kbps
Encoded date : UTC 2011-02-10 09:14:49
Writing application : mkvmerge v4.4.0 ('Die Wiederkehr') сборка от Dec 25 2010 23:32:50
Writing library : libebml v1.0.0 + libmatroska v1.0.0
Video
ID : 1
Format : AVC
Format/Info : Advanced Video Codec
Format profile : [email protected]
Format settings, CABAC : Yes
Format settings, ReFrames : 11 frames
Codec ID : V_MPEG4/ISO/AVC
Duration : 1h 12mn
Bit rate : 1 064 Kbps
Width : 704 pixels
Height : 528 pixels
Display aspect ratio : 4:3
Frame rate : 25.000 fps
Color space : YUV
Chroma subsampling : 4:2:0
Bit depth : 8 bits
Scan type : Progressive
Bits/(Pixel*Frame) : 0.114
Stream size : 542 MiB (83%)
Title : Rip by iriston
Writing library : x264 core 112 r1834 a51816a
Encoding settings : cabac=1 / ref=11 / deblock=1:-2:-1 / analyse=0x3:0x133 / me=umh / subme=10 / psy=1 / psy_rd=1.00:0.20 / mixed_ref=1 / me_range=16 / chroma_me=1 / trellis=2 / 8x8dct=1 / cqm=0 / deadzone=21,11 / fast_pskip=0 / chroma_qp_offset=-3 / threads=12 / sliced_threads=0 / nr=0 / decimate=0 / interlaced=0 / constrained_intra=0 / bframes=8 / b_pyramid=2 / b_adapt=2 / b_bias=0 / direct=3 / weightb=1 / open_gop=0 / weightp=2 / keyint=250 / keyint_min=25 / scenecut=40 / intra_refresh=0 / rc_lookahead=60 / rc=2pass / mbtree=1 / bitrate=1064 / ratetol=1.0 / qcomp=0.60 / qpmin=0 / qpmax=51 / qpstep=4 / cplxblur=20.0 / qblur=0.5 / ip_ratio=1.40 / aq=2:1.00
Language : Russian
Matrix coefficients : BT.470-6 System B, BT.470-6 System G, BT.601-6 625, BT.1358 625, BT.1700 625 PAL, BT.1700 625 SECAM, IEC 61966-2-4 601
Audio
ID : 2
Format : AC-3
Format/Info : Audio Coding 3
Mode extension : CM (complete main)
Codec ID : A_AC3
Duration : 1h 12mn
Bit rate mode : Constant
Bit rate : 192 Kbps
Channel(s) : 2 channels
Channel positions : Front: L R
Sampling rate : 48.0 KHz
Bit depth : 16 bits
Compression mode : Lossy
Stream size : 100.0 MiB (15%)
Language : Russian

x264 log:

avs [info]: 704x528p 1:1 @ 25/1 fps (cfr)
x264 [info]: using SAR=1/1
x264 [info]: using cpu capabilities: MMX2 SSE2Fast SSSE3 FastShuffle SSE4.2
x264 [info]: profile High, level 3.1
x264 [info]: frame I:524 Avg QP:16.10 size: 41850
x264 [info]: frame P:24240 Avg QP:19.45 size: 15381
x264 [info]: frame B:84462 Avg QP:24.23 size: 2206
x264 [info]: consecutive B-frames: 1.7% 1.8% 7.3% 18.8% 26.2% 42.8% 1.1% 0.3% 0.0%
x264 [info]: mb I I16..4: 11.1% 72.8% 16.1%
x264 [info]: mb P I16..4: 2.6% 8.7% 1.0% P16..4: 53.9% 20.9% 7.8% 0.5% 0.7% skip: 3.9%
x264 [info]: mb B I16..4: 0.1% 0.4% 0.1% B16..8: 36.7% 5.4% 1.1% direct: 2.8% skip:53.6% L0:39.9% L1:45.6% BI:14.5%
x264 [info]: 8x8 transform intra:71.6% inter:62.6%
x264 [info]: direct mvs spatial:99.6% temporal:0.4%
x264 [info]: coded y,uvDC,uvAC intra: 75.1% 60.6% 27.8% inter: 15.2% 12.5% 4.1%
x264 [info]: i16 v,h,dc,p: 24% 17% 16% 43%
x264 [info]: i8 v,h,dc,ddl,ddr,vr,hd,vl,hu: 13% 11% 9% 8% 11% 12% 11% 12% 13%
x264 [info]: i4 v,h,dc,ddl,ddr,vr,hd,vl,hu: 12% 11% 5% 8% 13% 13% 13% 11% 13%
x264 [info]: i8c dc,h,v,p: 41% 27% 22% 9%
x264 [info]: Weighted P-Frames: Y:17.2% UV:7.3%
x264 [info]: ref P L0: 47.3% 12.5% 14.9% 6.8% 5.0% 4.0% 3.3% 1.9% 1.6% 1.3% 1.1% 0.3% 0.0%
x264 [info]: ref B L0: 87.1% 7.8% 2.1% 0.9% 0.7% 0.5% 0.4% 0.2% 0.1% 0.1%
x264 [info]: ref B L1: 97.0% 3.0%
x264 [info]: kb/s:1064.09
-

Скриншоты:

         
-

_________________
Человек – это канат, натянутый между животным и сверхчеловеком, – канат над пропастью.
В человеке ценно то, что он мост, а не цель. Фридрих Ницше
Other forum [Profile] [PM]
Similar theme
Forum Topic Author Torrent Replies Last Post
./templates/default/images/folder_dl.gif Художественная литература Пьер Алексис Понсон дю Террайль "Полные похождения Рокамболя" [2010] [FB2] Omen
1 | 0

0 | 1389

2

2012-11-18 18:35
Omen Latest
./templates/default/images/folder_dl.gif Иностранные мультфильмы Похождения бравого солдата Швейка (Ринат Газизов) [2009б Мультфильм, комедия, рисованная анимация, для взрослых, WEBRip, 1080p-LQ] mayor
1 | 0

0 | 113

0

2020-01-13 18:40
mayor Latest
Display posts from previous:    
Reply to topic

The time now is: Today 22:37

All times are GMT + 3 Hours



You cannot post new topics in this forum
You cannot reply to topics in this forum
You cannot edit your posts in this forum
You cannot delete your posts in this forum
You cannot vote in polls in this forum
You cannot attach files in this forum
You cannot download files in this forum