Today is a free download without charge Download

Сказка о глупом мышонке (Ирина Собинова-Кассиль) [1981 г., Мультфильм, экранизация, SATRip]

Reply to topic
 
Author
Message

Omen ®

Longevity: 7 years 11 months

Posts: 181087

Торрент-статистика

Post 24-Sep-2013 09:19

[Quote]

Сказка о глупом мышонкеСтрана: СССР
Жанр: мультфильм, экранизация
Продолжительность: 0:09:39
Год выпуска: 1981
Выпущено: «Союзмультфильм»
Режиссёр: Ирина Собинова-Кассиль
Русские субтитры: нетОписание:По одноимённому стихотворению С. Я. Маршака.
Разонравился мышонку голос его собственной мамы, которая пела ему колыбельные, и стал он требовать няньку. Бедной мышке пришлось бегать по соседям и уговаривать их баюкать её неугомонного сыночка...

Режиссёр и команда

Режиссёр Ирина Собинова-Кассиль
сценарист Борис Степанцев
художники-постановщики: Д. Лобанова, Галина Мелько
аниматоры: Ольга Панокина, Лидия Маятникова
оператор Игорь Скидан-Босин
директор Белла Ходова
композитор Михаил Меерович
звукорежиссёр Борис Фильчиков
редактор Раиса Фричинская
куклы и декорации: Валерий Петров, Е. Дарикович, Владимир Алисов, Наталия Барковская, Светлана Знаменская, Виктор Гришин, Владимир Аббакумов, Александр Максимов, Павел Гусев, Галина Филиппова, Марина Чеснокова, Семён Этлис, Михаил Колтунов, Валентин Ладыгин
скульптор Наталия Гринберг
текст читает Ирина Собинова-Кассиль
Качество: SATRip
Формат: AVI
Видео: 720x544 (1.32:1), 25 fps, XviD build 64 ~2362 kbps avg, 0.24 bit/pixel
Аудио: 48 kHz, AC3 Dolby Digital, 2/0 (L,R) ch, ~192 kbps
Субтитры: отсутствуют

Подробные технические данные

ОбщееПолное имя : D:\Мульты\Skazka_o_glupom_myshonke_(1981,_SATRip).aviФормат : AVIФормат/Информация : Audio Video InterleaveРазмер файла : 177 МбайтПродолжительность : 9 м. 39 с.Общий поток : 2564 Кбит/секПрограмма кодирования : VirtualDubMod 1.5.10.2 (build 2540/release)Библиотека кодирования : VirtualDubMod build 2540/release
ВидеоИдентификатор : 0Формат : MPEG-4 VisualПрофиль формата : Advanced [email protected]Параметр BVOP формата : 2Параметр QPel формата : НетПараметр GMC формата : Без точки переходаПараметр матрицы формата : ВыборочнаяИдентификатор кодека : XVIDИдентификатор кодека/Подсказка : XviDПродолжительность : 9 м. 39 с.Битрейт : 2362 Кбит/секШирина : 720 пикселейВысота : 544 пикселяСоотношение сторон : 4:3Частота кадров : 25,000 кадров/секЦветовое пространство : YUVСубдискретизация насыщенности : 4:2:0Битовая глубина : 8 битТип развёртки : ПрогрессивнаяМетод сжатия : С потерямиБит/(Пиксели*Кадры) : 0.241Размер потока : 163 Мбайт (92%)Библиотека кодирования : XviD 64
АудиоИдентификатор : 1Формат : AC-3Формат/Информация : Audio Coding 3Расширение режима : CM (complete main)Идентификатор кодека : 2000Продолжительность : 9 м. 39 с.Вид битрейта : ПостоянныйБитрейт : 192 Кбит/секКаналы : 2 каналаРасположение каналов : Front: L RЧастота : 48,0 КГцБитовая глубина : 16 битМетод сжатия : С потерямиРазмер потока : 13,3 Мбайт (7%)Выравнивание : Разделение по промежуткамПродолжительность промежутка : 40 мс. (1,00 видеокадр)Время предзагрузки промежутка : 500 мс.

Скриншоты

На закуску – пассаж с уткой:

Other forum [Profile] [PM]
Display posts from previous:    
Reply to topic

The time now is: Today 16:08

All times are GMT + 3 Hours



You cannot post new topics in this forum
You cannot reply to topics in this forum
You cannot edit your posts in this forum
You cannot delete your posts in this forum
You cannot vote in polls in this forum
You cannot attach files in this forum
You cannot download files in this forum