Today is a free download without charge Download

Efterklang - Rockpalast - Haldern Pop Festival [2013, Indie Rock, Dream pop, Electronic, Synthpop, HDTV 720p]

Reply to topic
 
Author
Message

Omen ®

Longevity: 8 years 4 months

Posts: 181087

Торрент-статистика

Post 23-Sep-2013 20:59

[Quote]


Efterklang - Haldern Pop Festival


Жанр: Indie Rock, Dream pop, Electronic, Synthpop
Продолжительность: 00:17:58
Год выпуска: Broadcast on WDR HD (Rockpalast) on 2013-09-16

Efterklang

Efterklang — инди-рок-группа из Копенгагена (Дания), образованная в декабре 2000 года.
На сегодняшний день группа выпустила четыре студийных альбома, два из них - на британском лейбле 4AD.
У группы есть собственный лейбл Rumraket
Название Efterklang происходит от датских слов после и звук, то есть это название можно перевести как послезвучие, реверберация, эхо
Casper Clausen - vocals
Rasmus Stolberg - bass
Mads Brauer - electronics, keyboards
Martyn Heyne - guitar, vocals, keyboards
Katinka Fogh Vindelev - vocals, keyboards
Tatu Ronkko - drums
Качество: HDTV 720p
Контейнер: TS
Видео кодек: H.264
Аудио кодек: MP2, AC3
Видео: MPEG4 Video (H264) 1280x720 50fps 6625Kbps
Аудио 1: MPEG Audio 48000Hz stereo 192kbps
Аудио 2: Dolby AC3 48000Hz stereo 448kbps

Отчёт MediaInfo / BDInfo

GeneralID : 1111 (0x457)Complete name : E:\Efterklang - Rockpalast - Haldern Pop Festival 2013 .tsFormat : MPEG-TSFile size : 1 009 MiBDuration : 17mn 57sOverall bit rate mode : VariableOverall bit rate : 7 853 Kbps
VideoID : 5601 (0x15E1)Menu ID : 28544 (0x6F80)Format : AVCFormat/Info : Advanced Video CodecFormat profile : [email protected] settings, CABAC : YesFormat settings, ReFrames : 4 framesCodec ID : 27Duration : 17mn 57sBit rate : 6 625 KbpsWidth : 1 280 pixelsHeight : 720 pixelsDisplay aspect ratio : 16:9Frame rate : 50.000 fpsColor space : YUVChroma subsampling : 4:2:0Bit depth : 8 bitsScan type : ProgressiveBits/(Pixel*Frame) : 0.144Stream size : 851 MiB (84%)
Audio #1ID : 5602 (0x15E2)Menu ID : 28544 (0x6F80)Format : MPEG AudioFormat version : Version 1Format profile : Layer 2Codec ID : 3Duration : 17mn 57sBit rate mode : ConstantBit rate : 192 KbpsChannel(s) : 2 channelsSampling rate : 48.0 KHzCompression mode : LossyDelay relative to video : 2msStream size : 24.7 MiB (2%)Language : German
Audio #2ID : 5603 (0x15E3)Menu ID : 28544 (0x6F80)Format : MPEG AudioFormat version : Version 1Format profile : Layer 2Codec ID : 3Duration : 17mn 57sBit rate mode : ConstantBit rate : 192 KbpsChannel(s) : 2 channelsSampling rate : 48.0 KHzCompression mode : LossyDelay relative to video : 2msStream size : 24.7 MiB (2%)
Audio #3ID : 5606 (0x15E6)Menu ID : 28544 (0x6F80)Format : AC-3Format/Info : Audio Coding 3Mode extension : CM (complete main)Format settings, Endianness : BigCodec ID : 6Duration : 17mn 57sBit rate mode : ConstantBit rate : 448 KbpsChannel(s) : 2 channelsChannel positions : Front: L RSampling rate : 48.0 KHzBit depth : 16 bitsCompression mode : LossyDelay relative to video : 57msStream size : 57.6 MiB (6%)Language : German
Other forum [Profile] [PM]
Display posts from previous:    
Reply to topic

The time now is: Today 12:18

All times are GMT + 3 Hours



You cannot post new topics in this forum
You cannot reply to topics in this forum
You cannot edit your posts in this forum
You cannot delete your posts in this forum
You cannot vote in polls in this forum
You cannot attach files in this forum
You cannot download files in this forum