Today is a free download without charge Download

The Magic Numbers - Live At The Eden Project [2007, indie pop-rock, HDTV 1080р]

Reply to topic
 
Author
Message

Omen ®

Longevity: 8 years 4 months

Posts: 181087

Торрент-статистика

Post 23-Sep-2013 16:55

[Quote]

The Magic Numbers - Live At The Eden Project
Жанр: indie pop-rock
Продолжительность: 00:52:12
Год выпуска: 2007
Описание:
The Magic Numbers - Live At The Eden Project, 2007
Треклист:
1. This Is A Song
2. You Never Had It
3. Love's A Game
4. Let Somebody In
5. Take A Chance
6. Forever Lost
7. Hymn For Her
8. Love Me Like You
9. All I See
10.Mornings Eleven
00:52:12
Качество: HDTVRip 1080p
Контейнер: MKV
Видео кодек: H.264
Аудио кодек: AC3
Видео: 1920x1080 (16:9), 25.00 fps, AVC, MKV, 8191 Кбит, 0.158 bits/pixel
Аудио: 48.0 KHz, AC3, 2 ch, 192 Kbps

Отчёт MediaInfo

Полное имя : G:\DVD\The Magic Numbers (2007)\The Magic Numbers - Live At The Eden Project.mkvФормат : MatroskaРазмер файла : 3,15 ГбайтПродолжительность : 52 м.Общий поток : 8553 Кбит/секПрограмма кодирования : Lavf51.12.1Библиотека кодирования : Lavf51.12.1
ВидеоИдентификатор : 1Формат : AVCФормат/Информация : Advanced Video CodecПрофиль формата : [email protected]Параметр CABAC формата : НетПараметр ReFrames формата : 1 кадрПараметр GOP формата : M=1, N=12Идентификатор кодека : V_MPEG4/ISO/AVCПродолжительность : 52 м.Вид битрейта : ПеременныйБитрейт : 8191 Кбит/секМаксимальный битрейт : 12,0 Мбит/секШирина : 1920 пикселейВысота : 1080 пикселейСоотношение сторон : 16:9Частота кадров : 25,000 кадров/секЧастота кадров в оригинале : 24,000 кадра/секЦветовое пространство : YUVСубдискретизация насыщенности : 4:2:0Битовая глубина : 8 битТип развёртки : ПрогрессивнаяБит/(Пиксели*Кадры) : 0.158Размер потока : 3,02 Гбайт (96%)Язык : English / English
АудиоИдентификатор : 2Формат : AC-3Формат/Информация : Audio Coding 3Расширение режима : CM (complete main)Идентификатор кодека : A_AC3Продолжительность : 52 м.Вид битрейта : ПостоянныйБитрейт : 192 Кбит/секКаналы : 2 каналаРасположение каналов : Front: L RЧастота : 48,0 КГцБитовая глубина : 16 битМетод сжатия : С потерямиРазмер потока : 72,4 Мбайт (2%)Язык : English / English
Other forum [Profile] [PM]
Display posts from previous:    
Reply to topic

The time now is: Today 23:06

All times are GMT + 3 Hours



You cannot post new topics in this forum
You cannot reply to topics in this forum
You cannot edit your posts in this forum
You cannot delete your posts in this forum
You cannot vote in polls in this forum
You cannot attach files in this forum
You cannot download files in this forum