Today is a free download without charge Download

Imagine Dragons - SWR3 New Pop Festival 2013 [2013, Alternative rock/Indie rock/Electronic rock, HDTV 720p]

Reply to topic
 
Author
Message

Omen ®

Longevity: 8 years 3 months

Posts: 181087

Торрент-статистика

Post 23-Sep-2013 12:38

[Quote]

Imagine Dragons - SWR3 New Pop Festival 2013
Жанр: Alternative rock/Indie rock/Electronic rock
Продолжительность: 00:43:44
Год выпуска: 2013
Описание: Выступление американского рок бэнда Imagine Dragons на музыкальном фестивале ''SWR3 New Pop Festival'' в немецком Баден Бадене 2013 sep12
Доп. информация: Собственная запись со спутникового канала SWR 2013 sep16
Треклист: Intro
Amsterdam
Tiptoe
Hear Me
It's Time
Demons
On Top of the World
Underdog
Radioactive
Качество: HDTV 720p
Контейнер: TS
Видео кодек: H.264
Аудио кодек: AC3
Видео: Mpeg4 AVC, 1280x720, 12300 kbps, 50 fps Progressive
Аудио: AC3, 448 kbps, 48 kHz, stereo
Аудио 2: MP2, 192 kbps, 48 kHz, stereo
Аудио 3: MP2, 192 kbps, 48 kHz, stereo

Отчёт MediaInfo / BDInfo

GeneralID : 1 (0x1)Complete name : D:\Downloads\Imagine Dragons - SWR3 New Pop Festival 2013.tsFormat : MPEG-TSFile size : 4.24 GiBDuration : 43mn 44sOverall bit rate mode : VariableOverall bit rate : 13.9 Mbps
VideoID : 5121 (0x1401)Menu ID : 1 (0x1)Format : AVCFormat/Info : Advanced Video CodecFormat profile : [email protected] settings, CABAC : YesFormat settings, ReFrames : 4 framesCodec ID : 27Duration : 43mn 44sBit rate : 12.3 MbpsWidth : 1 280 pixelsHeight : 720 pixelsDisplay aspect ratio : 16:9Frame rate : 50.000 fpsColor space : YUVChroma subsampling : 4:2:0Bit depth : 8 bitsScan type : ProgressiveBits/(Pixel*Frame) : 0.268Stream size : 3.77 GiB (89%)
Audio #1ID : 5122 (0x1402)Menu ID : 1 (0x1)Format : MPEG AudioFormat version : Version 1Format profile : Layer 2Codec ID : 3Duration : 43mn 44sBit rate mode : ConstantBit rate : 192 KbpsChannel(s) : 2 channelsSampling rate : 48.0 KHzCompression mode : LossyStream size : 60.1 MiB (1%)Language : German
Audio #2ID : 5123 (0x1403)Menu ID : 1 (0x1)Format : MPEG AudioFormat version : Version 1Format profile : Layer 2Codec ID : 3Duration : 43mn 44sBit rate mode : ConstantBit rate : 192 KbpsChannel(s) : 2 channelsSampling rate : 48.0 KHzCompression mode : LossyStream size : 60.1 MiB (1%)
Audio #3ID : 5126 (0x1406)Menu ID : 1 (0x1)Format : AC-3Format/Info : Audio Coding 3Mode extension : CM (complete main)Format settings, Endianness : BigCodec ID : 6Duration : 43mn 44sBit rate mode : ConstantBit rate : 448 KbpsChannel(s) : 2 channelsChannel positions : Front: L RSampling rate : 48.0 KHzBit depth : 16 bitsCompression mode : LossyStream size : 140 MiB (3%)Language : German
Text #1ID : 5134 (0x140E)-100Menu ID : 1 (0x1)Format : TeletextLanguage : German
Text #2ID : 5135 (0x140F)Menu ID : 1 (0x1)Format : DVB SubtitleCodec ID : 6Duration : 43mn 31sDelay relative to video : 6s 554msLanguage : German
MenuID : 5130 (0x140A)Menu ID : 1 (0x1)Duration : 43mn 44sList : 5121 (0x1401) (AVC) / 5123 (0x1403) (MPEG Audio) / 5126 (0x1406) (AC-3, German) / 5122 (0x1402) (MPEG Audio, German) / 5134 (0x140E) () / 5135 (0x140F) (DVB Subtitle, German)Language : / / German / German / / German

Скриншоты

Other forum [Profile] [PM]
Display posts from previous:    
Reply to topic

The time now is: Today 23:10

All times are GMT + 3 Hours



You cannot post new topics in this forum
You cannot reply to topics in this forum
You cannot edit your posts in this forum
You cannot delete your posts in this forum
You cannot vote in polls in this forum
You cannot attach files in this forum
You cannot download files in this forum