Today is a free download without charge Download

The Bravery - Live At South By Southwest [2007, indie rock / post-punk, HDTV 1080p]

Reply to topic
 
Author
Message

Omen ®

Longevity: 8 years 4 months

Posts: 181087

Торрент-статистика

Post 22-Sep-2013 20:26

[Quote]

The Bravery - Live At South By Southwest
Жанр: indie rock / post-punk
Продолжительность: 00:44:22
Год выпуска: 2007
Описание:
The Bravery - Live At South By Southwest, 2007
Треклист:
1. Fearless
2. No Brakes
3. Public Service Announcement
4. This Is Not The End
5. Swollen Summer
6. Time Won't Let Me Go
7. An Honest Mistake
8. Bad Sun
9. Unconditionnal
Качество: HDTVRip 1080p
Контейнер: MKV
Видео кодек: H.264
Аудио кодек: AC3
Видео: 1920x1080 (16:9), 25.00 fps, AVC, MKV, 8174 Кбит, 0.158 bits/pixel
Аудио: 48.0 KHz, AC3, 2 ch, 192 Kbps

Отчёт MediaInfo

Полное имя : G:\DVD\The Bravery (2007)\The Bravery - Live At South By Southwest.mkvФормат : MatroskaРазмер файла : 2,65 ГбайтПродолжительность : 44 м.Общий поток : 8536 Кбит/секПрограмма кодирования : Lavf51.12.1Библиотека кодирования : Lavf51.12.1
ВидеоИдентификатор : 1Формат : AVCФормат/Информация : Advanced Video CodecПрофиль формата : [email protected]Параметр CABAC формата : НетПараметр ReFrames формата : 1 кадрПараметр GOP формата : M=1, N=12Идентификатор кодека : V_MPEG4/ISO/AVCПродолжительность : 44 м.Вид битрейта : ПеременныйБитрейт : 8174 Кбит/секМаксимальный битрейт : 12,0 Мбит/секШирина : 1920 пикселейВысота : 1080 пикселейСоотношение сторон : 16:9Частота кадров : 25,000 кадров/секЧастота кадров в оригинале : 24,000 кадра/секЦветовое пространство : YUVСубдискретизация насыщенности : 4:2:0Битовая глубина : 8 битТип развёртки : ПрогрессивнаяБит/(Пиксели*Кадры) : 0.158Размер потока : 2,53 Гбайт (96%)Язык : English / English
АудиоИдентификатор : 2Формат : AC-3Формат/Информация : Audio Coding 3Расширение режима : CM (complete main)Идентификатор кодека : A_AC3Продолжительность : 44 м.Вид битрейта : ПостоянныйБитрейт : 192 Кбит/секКаналы : 2 каналаРасположение каналов : Front: L RЧастота : 48,0 КГцБитовая глубина : 16 битМетод сжатия : С потерямиРазмер потока : 60,9 Мбайт (2%)Язык : English / English
Other forum [Profile] [PM]
Display posts from previous:    
Reply to topic

The time now is: Today 13:49

All times are GMT + 3 Hours



You cannot post new topics in this forum
You cannot reply to topics in this forum
You cannot edit your posts in this forum
You cannot delete your posts in this forum
You cannot vote in polls in this forum
You cannot attach files in this forum
You cannot download files in this forum