Today is a free download without charge Download

Шерлок Холмс и черные человечки (Александр Бубнов) [2012 г., Короткометражка, Рисованная анимация, Детектив, Пародия] WEBRip (6 серий из 6-ти)

Reply to topic
 
Author
Message

Omen ®

Longevity: 7 years 11 months

Posts: 181087

Торрент-статистика

Post 22-Sep-2013 18:33

[Quote]

Шерлок Холмс и черные человечки - Год выпуска: 2012
Жанр: Короткометражка, Рисованная анимация, Детектив, Пародия
Производство: Украина, Студия Бубен
Язык: Русский
Описание:
Это история про знаменитого сыщика Шерлока Холмса и его неизменного спутника доктора Ватсона, которые расследуют запутанное дело о взрыве камина в Адмиралтействе и похищении из сейфа секретных документов. Зрители встретятся и с инспектором Лестрейдом, и с миссис Хадсон, и с начальником секретного отдела адмиралом Бенбоу, а также загадочными чёрными человечками.
Продолжение мультфильма «Шерлок Холмс и доктор Ватсон: Убийство лорда Уотербрука»
Режиссер: Александр Бубнов
Аниматоры: Е. Алёхин, Л. Булаш, И. Вовкогон, А. Бубнов, Б. Бубнов, Т. Гагурина, И. Хоменко
Персонажи: Алексей Колган, Лариса Брохман
Продолжительность: 6 х ~00:06:24
Качество видео: WEBRip

Видеокодек: Xvid
Битрейт видео: ~1 512 Kbps
Размер кадра: 720х400
Аудиокодек: AC3 2 ch
Аудио: 48 kHz, AC3 Dolby Digital, 2/0 (L,R) ch, ~192 kbps
Сэмпл: Ссылка
Исходник WEBRip 1080p
Релиз группа:

Медиаинфо

Format : AVI
Format/Info : Audio Video Interleave
File size : 79.3 MiB
Duration : 6mn 27s
Overall bit rate : 1 714 Kbps
Director : CrimeanFox
Writing application : VirtualDubMod 1.5.10.3 | www.virtualdub-fr.org || (build 2550/release)
Writing library : VirtualDub build 32706/release
Copyright : RG.Vanila.films
Video
ID : 0
Format : MPEG-4 Visual
Format profile : Advanced [email protected]
Format settings, BVOP : 2
Format settings, QPel : No
Format settings, GMC : No warppoints
Format settings, Matrix : Default (MPEG)
Codec ID : XVID
Codec ID/Hint : XviD
Duration : 6mn 27s
Bit rate : 1 512 Kbps
Width : 720 pixels
Height : 400 pixels
Display aspect ratio : 16:9
Frame rate : 25.000 fps
Color space : YUV
Chroma subsampling : 4:2:0
Bit depth : 8 bits
Scan type : Progressive
Compression mode : Lossy
Bits/(Pixel*Frame) : 0.210
Stream size : 69.9 MiB (88%)
Writing library : XviD 65
Audio
ID : 1
Format : AC-3
Format/Info : Audio Coding 3
Mode extension : CM (complete main)
Format settings, Endianness : Big
Codec ID : 2000
Duration : 6mn 27s
Bit rate mode : Constant
Bit rate : 192 Kbps
Channel(s) : 2 channels
Channel positions : Front: L R
Sampling rate : 48.0 KHz
Bit depth : 16 bits
Compression mode : Lossy
Stream size : 8.88 MiB (11%)
Alignment : Split accross interleaves
Interleave, duration : 40 ms (1.00 video frame)
Interleave, preload duration : 500 ms
Скриншоты:
         
         
Other forum [Profile] [PM]
Display posts from previous:    
Reply to topic

The time now is: Today 05:10

All times are GMT + 3 Hours



You cannot post new topics in this forum
You cannot reply to topics in this forum
You cannot edit your posts in this forum
You cannot delete your posts in this forum
You cannot vote in polls in this forum
You cannot attach files in this forum
You cannot download files in this forum