Today is a free download without charge Download

Свяжи меня / Atame! (Педро Альмодовар) [1990 г., драма, мелодрама, комедия, криминал, BDRip720p]

Reply to topic
 
Author
Message

Delia ®

Gender:

Longevity: 9 years 6 months

Posts: 1821

Торрент-статистика

Post 30-Sep-2011 17:09

[Quote]

Свяжи меня Atame! Год выпуска: 1990
Страна: Испания
Жанр: драма, мелодрама, комедия, криминал
Продолжительность: 01:40:33
Перевод: Профессиональный (многоголосый, закадровый)
Режиссер: Педро Альмодовар
Продюссер: Энрике Познер, Агустин Альмодовар
Сценарий: Педро Альмодовар
Премьера в мире: 22 января 1990
В ролях: Виктория Абриль, Антонио Бандерас, Лолес Леон, Хульета Серрано, Мария Барранко, Росси де Пальма, Франсиско Рабаль, Лола Кардона, Монце Дж. Ромеу, Эмильяно Редондо, ...
Описание: Рики (Антонио Бандерас) выписывается из психиатрической клиники и начинает преследовать актрису Марину (Виктория Абриль), с которой имел случайную связь год назад во время одного из побегов. Марина — порнозвезда и наркоманка. Рики похищает её и держит связанной, пока сам спит или вынужден отлучаться по делам. Постепенно у похищенной развивается стокгольмский синдром и она влюбляется в Рики. Ей выпадает шанс спастись, однако она вместе с сестрой отправляется на поиски Рики в деревню, которую тот мечтал посетить. Лола, сестра Марины, обещает Рики найти хорошую работу.
Качество: BDRip720p
Формат: MKV
Видео кодек: H.264
Аудио кодек: AC3
Видео: English, 5329 Кбит/сек, 1280*688 (1,860), в 24,000 кадр/сек, AVC ([email protected])
Аудио: Russian, 384 Кбит/сек, 48,0 КГц, 16 бит, 6 канала(ов), AC-3 | Многолосый закадровый, R5, Кармен Видео|
Аудио: Russian, 192 Кбит/сек, 48,0 КГц, 16 бит, 2 канала(ов), AC-3 | Двухголосый закадровый
Аудио: Spanish, 320 Кбит/сек, 48,0 КГц, 16 бит, 2 канала(ов), AC-3 | Оригинал
Субтитры:Russian (VobSub)

MI:

Код:
Общее
Уникальный идентификатор         : 243451933635293596633090036008659497497 (0xB727230BECED32E8BEDD4ABF08E8B219)
Полное имя                       : E:\торрент\Atame! (1990)BDRip720p.mkv
Формат                           : Matroska
Размер файла                     : 4,38 Гбайт
Продолжительность                : 1 ч. 40 м.
Общий поток                      : 6231 Кбит/сек
Дата кодирования                 : UTC 2011-09-30 12:59:33
Программа кодирования            : mkvmerge v5.0.0 ('Die Wahre Liebe') built on Sep 25 2011 20:33:49
Библиотека кодирования           : libebml v1.2.2 + libmatroska v1.3.0
Видео
Идентификатор                    : 1
Формат                           : AVC
Формат/Информация                : Advanced Video Codec
Профиль формата                  : [email protected]
Параметр CABAC формата           : Да
Параметр ReFrames формата        : 8 кадры
Параметры GOP формата            : M=1, N=5
Идентификатор кодека             : V_MPEG4/ISO/AVC
Продолжительность                : 1 ч. 40 м.
Битрейт                          : 5329 Кбит/сек
Ширина                           : 1280 пикс.
Высота                           : 688 пикс.
Соотношение сторон               : 1,860
Частота кадров                   : 24,000 кадр/сек
Цветовое пространство            : YUV
Подвыборка цветности             : 4:2:0
Битовая глубина                  : 8 бит
Тип развёртки                    : Прогрессивная
Бит/(Пиксели*Кадры)              : 0.252
Размер потока                    : 3,66 Гбайт (84%)
Библиотека кодирования           : x264 core 118 r2085 8a62835
Настройки программы              : cabac=1 / ref=8 / deblock=1:-2:-2 / analyse=0x3:0x133 / me=umh / subme=9 / psy=1 / psy_rd=1.00:0.25 / mixed_ref=1 / me_range=32 / chroma_me=1 / trellis=2 / 8x8dct=1 / cqm=0 / deadzone=21,11 / fast_pskip=0 / chroma_qp_offset=-4 / threads=6 / sliced_threads=0 / nr=4 / decimate=1 / interlaced=0 / bluray_compat=0 / constrained_intra=0 / bframes=6 / b_pyramid=2 / b_adapt=2 / b_bias=0 / direct=3 / weightb=1 / open_gop=0 / weightp=2 / keyint=250 / keyint_min=23 / scenecut=40 / intra_refresh=0 / rc_lookahead=60 / rc=2pass / mbtree=1 / bitrate=5329 / ratetol=1.0 / qcomp=0.80 / qpmin=2 / qpmax=51 / qpstep=4 / cplxblur=20.0 / qblur=0.5 / ip_ratio=1.40 / aq=1:1.00
Язык                             : English
Аудио #1
Идентификатор                    : 2
Формат                           : AC-3
Формат/Информация                : Audio Coding 3
Расширение режима                : CM (complete main)
Идентификатор кодека             : A_AC3
Продолжительность                : 1 ч. 40 м.
Вид битрейта                     : Постоянный
Битрейт                          : 384 Кбит/сек
Канал(ы)                         : 6 канала(ов)
Расположение каналов             : Front: L C R, Side: L R, LFE
Частота                          : 48,0 КГц
Битовая глубина                  : 16 бит
Метод сжатия                     : С потерями
Размер потока                    : 276 Мбайт (6%)
Язык                             : Russian
Аудио #2
Идентификатор                    : 3
Формат                           : AC-3
Формат/Информация                : Audio Coding 3
Расширение режима                : CM (complete main)
Идентификатор кодека             : A_AC3
Продолжительность                : 1 ч. 40 м.
Вид битрейта                     : Постоянный
Битрейт                          : 192 Кбит/сек
Канал(ы)                         : 2 канала(ов)
Расположение каналов             : Front: L R
Частота                          : 48,0 КГц
Битовая глубина                  : 16 бит
Метод сжатия                     : С потерями
Размер потока                    : 138 Мбайт (3%)
Язык                             : Russian
Аудио #3
Идентификатор                    : 4
Формат                           : AC-3
Формат/Информация                : Audio Coding 3
Расширение режима                : CM (complete main)
Идентификатор кодека             : A_AC3
Продолжительность                : 1 ч. 40 м.
Вид битрейта                     : Постоянный
Битрейт                          : 320 Кбит/сек
Канал(ы)                         : 2 канала(ов)
Расположение каналов             : Front: L R
Частота                          : 48,0 КГц
Битовая глубина                  : 16 бит
Метод сжатия                     : С потерями
Размер потока                    : 230 Мбайт (5%)
Язык                             : Spanish
Текст
Идентификатор                    : 5
Формат                           : VobSub
Режим смешивания                 : zlib
Идентификатор кодека             : S_VOBSUB
Идентификатор кодека/Информация  : The same subtitle format used on DVDs
Язык                             : Russian
Меню
00:00:00.000                     : en:Chapter 01
00:15:10.916                     : en:Chapter 02
00:23:56.875                     : en:Chapter 03
00:37:10.625                     : en:Chapter 04
00:47:56.166                     : en:Chapter 05
01:01:02.166                     : en:Chapter 06
01:19:11.207                     : en:Chapter 07
01:28:29.375                     : en:Chapter 08

Скриншоты

       
       

_________________
Человек – это канат, натянутый между животным и сверхчеловеком, – канат над пропастью.
В человеке ценно то, что он мост, а не цель. Фридрих Ницше
Other forum [Profile] [PM]
Display posts from previous:    
Reply to topic

The time now is: Today 20:25

All times are GMT + 3 Hours



You cannot post new topics in this forum
You cannot reply to topics in this forum
You cannot edit your posts in this forum
You cannot delete your posts in this forum
You cannot vote in polls in this forum
You cannot attach files in this forum
You cannot download files in this forum