Today is a free download without charge Download

(Jazz, Covers, OST) Rasmus Faber presents Platina Jazz - Anime Standards Vol. 4 - 2013, FLAC (tracks+.cue), lossless

Reply to topic
 
Author
Message

Omen ®

Longevity: 9 years

Posts: 181086

Торрент-статистика

Post 22-Sep-2013 16:01

[Quote]

Rasmus Faber presents Platina Jazz - Anime Standards Vol. 4- Жанр: Jazz, Covers, OST
Год: 2013
Лейбл, Страна: Victor Entertainment, Japan
Номер по каталогу: VICP-65155
Аудиокодек(битрейт): FLAC(lossless)
Тип рипа: tracks+.cue
Источник: jpopsuki (rebelgamer)
Продолжительность: 1:15:30
Сканы присутствуют.-Tracklist:
  • 01. CHA-LA HEAD-CHA-LA[Dragon Ball Z] [4:20]
  • 02. MOTTO☆Hadenine![Kannagi] [4:07]
  • 03. Miracle·Girl[YAWARA!] [3:47]
  • 04. Youkai Ningen Bem[Youkai Ningen Bem] [3:01]
  • 05. Eternal Blaze[Magical Girl Lyrical Nanoha A’s] [5:03]
  • 06. Lum's Love Song[Urusei Yatsura] [5:03]
  • 07. Taiyou Iwaku Moe yo Chaos[Haiyore! Nyaruko-san] [5:17]
  • 08. Orion wo Nazoru[TIGER & BUNNY] [4:07]
  • 09. Moonlight Densetsu[Bishoujo Senshi Sailor Moon] [3:48]
  • 10. Eternal Wind ~Hohoemi wa Hikaru Kaze no Naka~[Mobile Suit Gundam F91] [3:07]
  • 11. GO! GO! MANIAC[K-ON!!] [5:25]
  • 12. I Do[Ghost in the Shell: STAND ALONE COMPLEX] [4:47]
  • 13. READY!![The [email protected]] [3:47]
  • 14. Hyadain no Kakakata☆Kataomoi-C[Nichijou] [4:15]
  • 15. Blue Water[Fushigi no Umi no Nadia] [5:29]
  • 16. Tsuki no Tama[∀ Gundam] [5:31]
  • 17. Sora Kara Koboreta STORY[Meitantei Holmes] [4:35]

-

.log EAC

Exact Audio Copy V1.0 beta 3 from 29. August 2011
EAC extraction logfile from 19. August 2013, 17:43
Rasmus Faber / Rasmus Faber presents Platina Jazz: Anime Standards Vol.4
Used drive : hp DVD A DS8A5LH Adapter: 1 ID: 0
Read mode : SecureUtilize accurate stream : YesDefeat audio cache : YesMake use of C2 pointers : No
Read offset correction : 6Overread into Lead-In and Lead-Out : NoFill up missing offset samples with silence : YesDelete leading and trailing silent blocks : NoNull samples used in CRC calculations : YesUsed interface : Native Win32 interface for Win NT & 2000Gap handling : Appended to previous track
Used output format : User Defined EncoderSelected bitrate : 1024 kBit/sQuality : HighAdd ID3 tag : NoCommand line compressor : C:\Program Files (x86)\Exact Audio Copy\Flac\flac.exeAdditional command line options : -8 -V -T "ARTIST=%artist%" -T "TITLE=%title%" -T "ALBUM=%albumtitle%" -T "DATE=%year%" -T "TRACKNUMBER=%tracknr%" -T "GENRE=%genre%" -T "PERFORMER=%albuminterpret%" -T "COMPOSER=%composer%" %haslyrics%--tag-from-file=LYRICS="%lyricsfile%"%haslyrics% -T "ALBUMARTIST=%albumartist%" -T "DISCNUMBER=%cdnumber%" -T "TOTALDISCS=%totalcds%" -T "TOTALTRACKS=%numtracks%" -T "COMMENT=%comment%" %source% -o %dest%
TOC of the extracted CD
Track | Start | Length | Start sector | End sector --------------------------------------------------------- 1 | 0:00.00 | 4:20.07 | 0 | 19506 2 | 4:20.07 | 4:07.17 | 19507 | 38048 3 | 8:27.24 | 3:47.05 | 38049 | 55078 4 | 12:14.29 | 3:01.09 | 55079 | 68662 5 | 15:15.38 | 5:03.05 | 68663 | 91392 6 | 20:18.43 | 5:03.28 | 91393 | 114145 7 | 25:21.71 | 5:16.50 | 114146 | 137895 8 | 30:38.46 | 4:07.18 | 137896 | 156438 9 | 34:45.64 | 3:47.57 | 156439 | 173520 10 | 38:33.46 | 3:06.53 | 173521 | 187523 11 | 41:40.24 | 5:25.23 | 187524 | 211921 12 | 47:05.47 | 4:47.20 | 211922 | 233466 13 | 51:52.67 | 3:47.28 | 233467 | 250519 14 | 55:40.20 | 4:15.05 | 250520 | 269649 15 | 59:55.25 | 5:29.06 | 269650 | 294330 16 | 65:24.31 | 5:30.45 | 294331 | 319125 17 | 70:55.01 | 4:35.12 | 319126 | 339762
Track 1
Filename C:\EAC Rips\Rasmus Faber Presents Platina Jazz ~ Anime Standards Vol. 4 (FLAC)\01 - CHA-LA HEAD-CHA-LA[ドラゴンボールZ].wav
Pre-gap length 0:00:02.00
Peak level 97.1 % Extraction speed 3.0 X Track quality 100.0 % Test CRC DC0EAB44 Copy CRC DC0EAB44 Accurately ripped (confidence 2) [F1E4B807] (AR v2) Copy OK
Track 2
Filename C:\EAC Rips\Rasmus Faber Presents Platina Jazz ~ Anime Standards Vol. 4 (FLAC)\02 - MOTTO☆派手にね![かんなぎ].wav
Peak level 97.1 % Extraction speed 3.3 X Track quality 100.0 % Test CRC 96CFE8C2 Copy CRC 96CFE8C2 Accurately ripped (confidence 2) [50F74643] (AR v2) Copy OK
Track 3
Filename C:\EAC Rips\Rasmus Faber Presents Platina Jazz ~ Anime Standards Vol. 4 (FLAC)\03 - ミラクル・ガール[YAWARA!].wav
Pre-gap length 0:00:01.00
Peak level 97.0 % Extraction speed 2.9 X Track quality 99.9 % Test CRC 13AFB365 Copy CRC 13AFB365 Accurately ripped (confidence 2) [9F81DF63] (AR v2) Copy OK
Track 4
Filename C:\EAC Rips\Rasmus Faber Presents Platina Jazz ~ Anime Standards Vol. 4 (FLAC)\04 - 妖怪人間ベム[妖怪人間ベム].wav
Pre-gap length 0:00:01.00
Peak level 97.0 % Extraction speed 3.6 X Track quality 100.0 % Test CRC B18A75F2 Copy CRC B18A75F2 Accurately ripped (confidence 2) [F4DD08DD] (AR v2) Copy OK
Track 5
Filename C:\EAC Rips\Rasmus Faber Presents Platina Jazz ~ Anime Standards Vol. 4 (FLAC)\05 - Eternal Blaze[魔法少女リリカルなのはA’s].wav
Pre-gap length 0:00:01.46
Peak level 97.1 % Extraction speed 4.1 X Track quality 100.0 % Test CRC 847C87A2 Copy CRC 847C87A2 Accurately ripped (confidence 2) [52320EC9] (AR v2) Copy OK
Track 6
Filename C:\EAC Rips\Rasmus Faber Presents Platina Jazz ~ Anime Standards Vol. 4 (FLAC)\06 - ラムのラブソング[うる星やつら].wav
Pre-gap length 0:00:01.46
Peak level 97.1 % Extraction speed 4.3 X Track quality 100.0 % Test CRC 5A643510 Copy CRC 5A643510 Accurately ripped (confidence 2) [190C8783] (AR v2) Copy OK
Track 7
Filename C:\EAC Rips\Rasmus Faber Presents Platina Jazz ~ Anime Standards Vol. 4 (FLAC)\07 - 太陽曰く燃えよカオス[這いよれ!ニャル子さん].wav
Pre-gap length 0:00:00.46
Peak level 97.1 % Extraction speed 4.6 X Track quality 100.0 % Test CRC FFDE4213 Copy CRC FFDE4213 Accurately ripped (confidence 2) [D0BE4946] (AR v2) Copy OK
Track 8
Filename C:\EAC Rips\Rasmus Faber Presents Platina Jazz ~ Anime Standards Vol. 4 (FLAC)\08 - オリオンをなぞる[TIGER & BUNNY].wav
Pre-gap length 0:00:01.00
Peak level 97.1 % Extraction speed 4.6 X Track quality 100.0 % Test CRC 1910C58D Copy CRC 1910C58D Accurately ripped (confidence 2) [21F5E27E] (AR v2) Copy OK
Track 9
Filename C:\EAC Rips\Rasmus Faber Presents Platina Jazz ~ Anime Standards Vol. 4 (FLAC)\09 - ムーンライト伝説[美少女戦士セーラームーン].wav
Pre-gap length 0:00:02.00
Peak level 97.1 % Extraction speed 3.9 X Track quality 99.9 % Test CRC 288C6C56 Copy CRC 288C6C56 Accurately ripped (confidence 2) [32470F2F] (AR v2) Copy OK
Track 10
Filename C:\EAC Rips\Rasmus Faber Presents Platina Jazz ~ Anime Standards Vol. 4 (FLAC)\10 - Eternal Wind ~ほほえみは光る風の中~[機動戦士ガンダムF91].wav
Pre-gap length 0:00:01.00
Peak level 97.1 % Extraction speed 4.7 X Track quality 100.0 % Test CRC 79F567B6 Copy CRC 79F567B6 Accurately ripped (confidence 2) [FC03F95E] (AR v2) Copy OK
Track 11
Filename C:\EAC Rips\Rasmus Faber Presents Platina Jazz ~ Anime Standards Vol. 4 (FLAC)\11 - GO! GO! MANIAC[けいおん!!].wav
Pre-gap length 0:00:01.00
Peak level 97.1 % Extraction speed 5.3 X Track quality 100.0 % Test CRC D9ECF7B0 Copy CRC D9ECF7B0 Accurately ripped (confidence 2) [CFA88CA6] (AR v2) Copy OK
Track 12
Filename C:\EAC Rips\Rasmus Faber Presents Platina Jazz ~ Anime Standards Vol. 4 (FLAC)\12 - I Do[攻殻機動隊STAND ALONE COMPLEX].wav
Pre-gap length 0:00:00.46
Peak level 97.1 % Extraction speed 5.4 X Track quality 100.0 % Test CRC FD721BD2 Copy CRC FD721BD2 Accurately ripped (confidence 2) [33368EF6] (AR v2) Copy OK
Track 13
Filename C:\EAC Rips\Rasmus Faber Presents Platina Jazz ~ Anime Standards Vol. 4 (FLAC)\13 - READY!![THE [email protected]].wav
Pre-gap length 0:00:02.00
Peak level 97.1 % Extraction speed 4.3 X Track quality 99.9 % Test CRC 642F382C Copy CRC 642F382C Accurately ripped (confidence 2) [2B1E0989] (AR v2) Copy OK
Track 14
Filename C:\EAC Rips\Rasmus Faber Presents Platina Jazz ~ Anime Standards Vol. 4 (FLAC)\14 - ヒャダインのカカカタ☆カタオモイ-C[日常].wav
Pre-gap length 0:00:02.00
Peak level 97.1 % Extraction speed 5.6 X Track quality 100.0 % Test CRC 1AD3A980 Copy CRC 1AD3A980 Accurately ripped (confidence 2) [6F8B5580] (AR v2) Copy OK
Track 15
Filename C:\EAC Rips\Rasmus Faber Presents Platina Jazz ~ Anime Standards Vol. 4 (FLAC)\15 - ブルーウォーター[ふしぎの海のナディア].wav
Pre-gap length 0:00:00.46
Peak level 97.1 % Extraction speed 6.0 X Track quality 100.0 % Test CRC 228892D0 Copy CRC 228892D0 Accurately ripped (confidence 2) [FD826DFD] (AR v2) Copy OK
Track 16
Filename C:\EAC Rips\Rasmus Faber Presents Platina Jazz ~ Anime Standards Vol. 4 (FLAC)\16 - 月の繭[∀ GUNDAM].wav
Pre-gap length 0:00:01.00
Peak level 97.1 % Extraction speed 6.1 X Track quality 100.0 % Test CRC AD2C6A75 Copy CRC AD2C6A75 Accurately ripped (confidence 2) [C52B869D] (AR v2) Copy OK
Track 17
Filename C:\EAC Rips\Rasmus Faber Presents Platina Jazz ~ Anime Standards Vol. 4 (FLAC)\17 - 空からこぼれたSTORY[名探偵ホームズ].wav
Pre-gap length 0:00:02.46
Peak level 97.1 % Extraction speed 6.2 X Track quality 100.0 % Test CRC 6E577BB2 Copy CRC 6E577BB2 Accurately ripped (confidence 2) [8149BA37] (AR v2) Copy OK
All tracks accurately ripped
No errors occurred
End of status report
---- CUETools DB Plugin V2.1.3
[CTDB TOCID: MBhGHsBTB2mnaKORYGbzHb.sj6Q-] found, Submit result: already submitted[d0f62d27] (01/15) Differs in 1 samples @25:20:68[2ba16633] (14/15) Accurately rippedYou can use CUETools to repair this rip.
==== Log checksum F21F3B446993B7015741D68B996FB502BB8B94219C7FF967EE8702ACABAABD95 ====

.cue

REM GENRE AnimeREM DATE 2013REM DISCID E311B211REM COMMENT "ExactAudioCopy v1.0b3"FILE "01 - CHA-LA HEAD-CHA-LA[.......Z].wav" WAVE TRACK 01 AUDIO INDEX 01 00:00:00FILE "02 - MOTTO.....![....].wav" WAVE TRACK 02 AUDIO INDEX 01 00:00:00 TRACK 03 AUDIO INDEX 00 04:06:17FILE "03 - ....·...[YAWARA!].wav" WAVE INDEX 01 00:00:00 TRACK 04 AUDIO INDEX 00 03:46:05FILE "04 - ......[......].wav" WAVE INDEX 01 00:00:00 TRACK 05 AUDIO INDEX 00 02:59:49FILE "05 - Eternal Blaze[...........A’s].wav" WAVE INDEX 01 00:00:00 TRACK 06 AUDIO INDEX 00 05:01:45FILE "06 - ........[......].wav" WAVE INDEX 01 00:00:00 TRACK 07 AUDIO INDEX 00 05:02:68FILE "07 - ..........[....!......].wav" WAVE INDEX 01 00:00:00 TRACK 08 AUDIO INDEX 00 05:15:50FILE "08 - ........[TIGER & BUNNY].wav" WAVE INDEX 01 00:00:00 TRACK 09 AUDIO INDEX 00 04:05:18FILE "09 - ........[............].wav" WAVE INDEX 01 00:00:00 TRACK 10 AUDIO INDEX 00 03:46:57FILE "10 - Eternal Wind ~..........~[........F91].wav" WAVE INDEX 01 00:00:00 TRACK 11 AUDIO INDEX 00 03:05:53FILE "11 - GO! GO! MANIAC[....!!].wav" WAVE INDEX 01 00:00:00 TRACK 12 AUDIO INDEX 00 05:24:63FILE "12 - I Do[.....STAND ALONE COMPLEX].wav" WAVE INDEX 01 00:00:00 TRACK 13 AUDIO INDEX 00 04:45:20FILE "13 - READY!![THE [email protected]].wav" WAVE INDEX 01 00:00:00 TRACK 14 AUDIO INDEX 00 03:45:28FILE "14 - ................-C[..].wav" WAVE INDEX 01 00:00:00 TRACK 15 AUDIO INDEX 00 04:14:45FILE "15 - ........[..........].wav" WAVE INDEX 01 00:00:00 TRACK 16 AUDIO INDEX 00 05:28:06FILE "16 - ...[. GUNDAM].wav" WAVE INDEX 01 00:00:00 TRACK 17 AUDIO INDEX 00 05:28:10FILE "17 - .......STORY[.......].wav" WAVE INDEX 01 00:00:00

Спектр:

-
Other forum [Profile] [PM]
Display posts from previous:    
Reply to topic

The time now is: Today 02:03

All times are GMT + 3 Hours



You cannot post new topics in this forum
You cannot reply to topics in this forum
You cannot edit your posts in this forum
You cannot delete your posts in this forum
You cannot vote in polls in this forum
You cannot attach files in this forum
You cannot download files in this forum