Today is a free download without charge Download

Bon Jovi - Rock in Rio V [2013, Hard rock, HDTV 1080i]

Reply to topic
 
Author
Message

Omen ®

Longevity: 8 years 3 months

Posts: 181087

Торрент-статистика

Post 22-Sep-2013 07:46

[Quote]

Bon Jovi - Rock in Rio V--
-
-Жанр: Hard rock
Продолжительность: 2:05:16
Год выпуска: 2013--Треклист:
01. That's What the Water Made Me
02. You Give Love a Bad Name
03. Raise Your Hands
04. Runaway
05. Lost Highway
06. Whole Lot of Leavin'
07. It's My Life
08. Because We Can
09. What About Now
10. We Got It Goin' On
11. Keep the Faith
12. (You Want to) Make a Memory
13. Captain Crash & the Beauty Queen From Mars
14. We Weren't Born to Follow
15. Who Says You Can't Go Home
16. I'll Sleep When I'm Dead / Start Me Up
17. Bad Medicine / Shout
Encore:
18. Wanted Dead or Alive
19. Have a Nice Day
20. Livin' on a Prayer
21. Always-Live at 20 Sep 2013 - Brazil--Доп. информация: Запись с канала MultishowHD сделана CELOBRAZiL.--Качество: HDTV 1080i
Контейнер: TS
Видео кодек: H.264
Аудио кодек: AC3
Видео: AVC (H.264), 1920x1080i, 29.97 fps, 8 436 Kbps
Аудио: MPEG Audio, 48.0 KHz, 192 Kbps (2 Ch.)
Аудио 2: AC-3, 48.0 KHz, 448 Kbps (6 Ch.)-
-

Скриншоты

loading

-
-

Отчёт MediaInfo / BDInfo

GeneralID : 1 (0x1)Complete name : C:\Users\admin\Desktop\Bon Jovi Live @ Rock in Rio 5 (20 Sep 2013) (MULTISHOWHD-1080i-DD5.1-CELOBRAZiL).tsFormat : MPEG-TSFile size : 8.30 GiBDuration : 2h 5mnOverall bit rate mode : VariableOverall bit rate : 9 486 Kbps
VideoID : 4384 (0x1120)Menu ID : 1 (0x1)Format : AVCFormat/Info : Advanced Video CodecFormat profile : [email protected] settings, CABAC : YesFormat settings, ReFrames : 4 framesCodec ID : 27Duration : 2h 5mnBit rate : 8 436 KbpsWidth : 1 920 pixelsHeight : 1 080 pixelsDisplay aspect ratio : 16:9Frame rate : 29.970 fpsColor space : YUVChroma subsampling : 4:2:0Bit depth : 8 bitsScan type : MBAFFBits/(Pixel*Frame) : 0.136Stream size : 7.38 GiB (89%)Color primaries : BT.709Transfer characteristics : BT.709Matrix coefficients : BT.709
Audio #1ID : 4385 (0x1121)Menu ID : 1 (0x1)Format : AC-3Format/Info : Audio Coding 3Mode extension : CM (complete main)Format settings, Endianness : BigCodec ID : 129Duration : 2h 5mnBit rate mode : ConstantBit rate : 384 KbpsChannel(s) : 6 channelsChannel positions : Front: L C R, Side: L R, LFESampling rate : 48.0 KHzBit depth : 16 bitsCompression mode : LossyStream size : 344 MiB (4%)Language : Portuguese
Audio #2ID : 4386 (0x1122)Menu ID : 1 (0x1)Format : MPEG AudioFormat version : Version 1Format profile : Layer 2Codec ID : 3Duration : 2h 5mnBit rate mode : ConstantBit rate : 192 KbpsChannel(s) : 2 channelsSampling rate : 48.0 KHzCompression mode : LossyStream size : 172 MiB (2%)Language : English
Other forum [Profile] [PM]
Similar theme
Forum Topic Author Torrent Replies Last Post
./templates/default/images/folder_dl.gif Rock (Rock) [CD] Bon Jovi - Golden Ballads - Неизвестен, FLAC (image+.cue), lossless Omen
1 | 0

0 | 716

2

2014-10-30 05:00
Omen Latest
Display posts from previous:    
Reply to topic

The time now is: Today 09:51

All times are GMT + 3 Hours



You cannot post new topics in this forum
You cannot reply to topics in this forum
You cannot edit your posts in this forum
You cannot delete your posts in this forum
You cannot vote in polls in this forum
You cannot attach files in this forum
You cannot download files in this forum