Today is a free download without charge Download

Stevie Nicks & Lady Antebellum - CMT Crossroads [2013, Rock, Country, HDTV 1080i]

Reply to topic
 
Author
Message

Omen ®

Longevity: 8 years 4 months

Posts: 181087

Торрент-статистика

Post 22-Sep-2013 07:46

[Quote]

Stevie Nicks & Lady Antebellum - CMT Crossroads- Жанр: Rock, Country
Продолжительность: 00:39:26
Год выпуска: 2013-Описание: Совместный концерт Стиви Никс (Fleetwood Mac) и Lady Antebellum 13.09.2013 на CMT Crossroads.
CMT Crossroads - музыкальное шоу телеканалов Country Music Television и Palladia, в котором кантри исполнители выступают с музыкантами других жанров.

Треклист:
1. Edge of Seventeen
2. Love Don't Live Here
3. Need You Now
4. Landslide
5. Golden
6. Stop Draggin' My Heart Around
7. Phiannon-Качество: HDTV 1080i
Контейнер: TS
Видео кодек: MPEG2
Аудио кодек: AC3
Видео: 1920x1080 (16:9), 15.3 Mbps, 29.970 fps
Аудио: AC3, 384 Kbps, 48.0 Khz, 2 ch

Mediainfo

Код:
General
ID                                       : 1 (0x1)
Complete name                            : E:\CMT Crossroads - Stevie Nicks and Lady Antebellum 1080i HDTV DD5.1 MPEG2-TrollHD.ts
Format                                   : MPEG-TS
File size                                : 4.56 GiB
Duration                                 : 39mn 26s
Overall bit rate mode                    : Variable
Overall bit rate                         : 16.5 Mbps
Video
ID                                       : 613 (0x265)
Menu ID                                  : 1 (0x1)
Format                                   : MPEG Video
Format version                           : Version 2
Format profile                           : [email protected]
Format settings, BVOP                    : Yes
Format settings, Matrix                  : Custom
Format settings, GOP                     : M=3, N=15
Codec ID                                 : 2
Duration                                 : 39mn 25s
Bit rate mode                            : Variable
Bit rate                                 : 15.3 Mbps
Maximum bit rate                         : 16.0 Mbps
Width                                    : 1 920 pixels
Height                                   : 1 080 pixels
Display aspect ratio                     : 16:9
Frame rate                               : 29.970 fps
Color space                              : YUV
Chroma subsampling                       : 4:2:0
Bit depth                                : 8 bits
Scan type                                : Interlaced
Scan order                               : Top Field First
Compression mode                         : Lossy
Bits/(Pixel*Frame)                       : 0.247
Time code of first frame                 : 00:00:00;00
Time code source                         : Group of pictures header
Stream size                              : 4.23 GiB (93%)
Audio
ID                                       : 612 (0x264)
Menu ID                                  : 1 (0x1)
Format                                   : AC-3
Format/Info                              : Audio Coding 3
Mode extension                           : CM (complete main)
Format settings, Endianness              : Big
Codec ID                                 : 129
Duration                                 : 39mn 25s
Bit rate mode                            : Constant
Bit rate                                 : 384 Kbps
Channel(s)                               : 6 channels
Channel positions                        : Front: L C R, Side: L R, LFE
Sampling rate                            : 48.0 KHz
Bit depth                                : 16 bits
Compression mode                         : Lossy
Delay relative to video                  : 1ms
Stream size                              : 108 MiB (2%)
Language                                 : English
Text #1
ID                                       : 613 (0x265)-CC1
Menu ID                                  : 1 (0x1)
Format                                   : EIA-608
Muxing mode                              : A/53 / DTVCC Transport
Muxing mode, more info                   : Muxed in Video #1
Duration                                 : 39mn 25s
Bit rate mode                            : Constant
Stream size                              : 0.00 Byte (0%)
Text #2
ID                                       : 613 (0x265)-CC4
Menu ID                                  : 1 (0x1)
Format                                   : EIA-608
Muxing mode                              : A/53 / DTVCC Transport
Muxing mode, more info                   : Muxed in Video #1
Duration                                 : 39mn 25s
Bit rate mode                            : Constant
Stream size                              : 0.00 Byte (0%)
Text #3
ID                                       : 613 (0x265)-1
Menu ID                                  : 1 (0x1)
Format                                   : EIA-708
Muxing mode                              : A/53 / DTVCC Transport
Muxing mode, more info                   : Muxed in Video #1
Duration                                 : 39mn 25s
Bit rate mode                            : Constant
Stream size                              : 0.00 Byte (0%)

Скриншоты

Other forum [Profile] [PM]
Display posts from previous:    
Reply to topic

The time now is: Today 04:57

All times are GMT + 3 Hours



You cannot post new topics in this forum
You cannot reply to topics in this forum
You cannot edit your posts in this forum
You cannot delete your posts in this forum
You cannot vote in polls in this forum
You cannot attach files in this forum
You cannot download files in this forum