Today is a free download without charge Download

Discovery. Кодекс Мафии: Взгляд Изнутри / Inside the Gangsters Code (2013) HDTVRip [H.264/720p-LQ] [Сезон 1: 5 серий из 5]

Reply to topic
 
Author
Message

UndegraundMen ®

Longevity: 7 years 7 months

Posts: 25145

Торрент-статистика

Post 21-Sep-2013 23:04

[Quote]

Discovery. Кодекс Мафии: Взгляд Изнутри / Inside the Gangsters Code (2013)
HDTVRip [H.264/720p-LQ] [Сезон 1: 5 серий из 5]
- Режиссер / Телекомпания: Ким Флитскроф / Discovery Networks International
Страна: Великобритания
Год выпуска: 2013
Жанр: Документальный, криминал
Описание:
Каждый из нас в этой жизни посмотрел немало кинолент, в которых была показаны жизнь преступных лиц, состоящих в мафиозном синдикате, однако не стоит убеждать себя в том, что показанное в таких картинах является истиной, ведь это отнюдь не так. Перед нами находится новый документальный фильм, основанный на истории одного гангстера в прошлом по имени Лу Ферранте. И вот именно благодаря Лу мы смогли узнать то, как устроен мафиозный мир, со всеми своими законами, неурядицами, интересными моментами и интригами, которые могут попросту захватить дух, когда ты о них узнаешь.
Сериал «Кодекс Мафии: Взгляд Изнутри» является документальным фильмом, всё, что описано и показано в данном сериале является правдой. Все события основаны на реальных событиях, свою историю о структуре мафии, как устроена жизнь, условия хочет рассказать бывший гангстер Лу Ферранте, который до недавнего времени был одним из так называемых «плохих парней».
Продолжительность: 5 х ~00:43:00
Перевод: Одноголосый закадровый (профессиональный, Дасевич)
Видеокодек: MPEG-4 AVC/H.264
Битрейт видео: ~2 500 Кбит/с
Размер кадра: 1280 x 720
Качество видео: HDTVRip [720p-LQ]
Аудио:
1. [русский] АС3, 2.0 ch, 192 Кбит/с
2. [english] АС3, 5.1 ch, 384 Кбит/с
Содержание:

Эпизод 01 - "18th Street, El Salvador

Лу присоединяется к гангстерам 18-ой улицы в тюрьме и на воле, чтобы понять, почему их соперничество с МС-13 сеет смерть в Сальвадоре. Может ли кто-нибудь остановить эту войну?Скриншоты
       

Эпизод 02 - "The Commandos, Phillippines

Бывший мафиози Лу Ферранте посещает Манилу на Филиппинах и встречается с одной из самых жестоких тюремных банд в мире - Коммандос. Он знакомится с жизнью манильских бандитов.Скриншоты
       

Эпизод 03 - "The Burqueños, USA

Лу Ферранте посещает Альбукерке и встречается с одной из самых быстро растущих тюремных банд - Буркеньос. Как они набирают людей в банду, и насколько они угрожают своим соперникам?Скриншоты
       

Эпизод 04 - "The Camorra, Italy

Лу едет в Неаполь, где обосновалась одна из самых старых и мощных мафий - Каморра. Недавно в городе обнаружили несколько трупов, что привлекло мировое вниманиеСкриншоты
       

Эпизод 05 - "The Grypser Gang, Poland

Лу едет в Польшу знакомиться с миром Грипсеров. Он также посещает ряд боссов и свидетеля, который теперь находится под постоянной вооруженной охраной.Скриншоты
       
Скриншоты:
         
         

MediaInfo (параметры всех серий одинаковы)

General
Unique ID : 230306871221643476482359169504083085007 (0xAD437D6E91824FE09D63C0B157CE86CF)
Complete name : I:\РЕЛИЗЫ\Inside.The.Gangsters.Code (S01,ep.1-5)\Inside.The.Gangsters.Code.S01E01.The.18th.Street.720p.mkv
Format : Matroska
Format version : Version 2
File size : 968 MiB
Duration : 43mn 44s
Overall bit rate : 3 093 Kbps
Encoded date : UTC 2013-03-24 12:17:09
Writing application : mkvmerge v5.3.0 ('I could have danced') built on Mar 4 2012 19:18:32
Writing library : libebml v1.2.3 + libmatroska v1.3.0
Video
ID : 1
Format : AVC
Format/Info : Advanced Video Codec
Format profile : [url=mailto:[email protected]][email protected][/url]
Format settings, CABAC : Yes
Format settings, ReFrames : 5 frames
Codec ID : V_MPEG4/ISO/AVC
Duration : 43mn 44s
Bit rate : 2 456 Kbps
Width : 1 280 pixels
Height : 720 pixels
Display aspect ratio : 16:9
Frame rate : 25.000 fps
Color space : YUV
Chroma subsampling : 4:2:0
Bit depth : 8 bits
Scan type : Progressive
Bits/(Pixel*Frame) : 0.107
Stream size : 768 MiB (79%)
Writing library : x264 core 129 r2245 bc13772
Encoding settings : cabac=1 / ref=5 / deblock=1:0:0 / analyse=0x3:0x113 / me=umh / subme=8 / psy=1 / psy_rd=1.00:0.00 / mixed_ref=1 / me_range=16 / chroma_me=1 / trellis=1 / 8x8dct=1 / cqm=0 / deadzone=21,11 / fast_pskip=1 / chroma_qp_offset=-2 / threads=12 / lookahead_threads=2 / sliced_threads=0 / nr=0 / decimate=1 / interlaced=0 / bluray_compat=0 / constrained_intra=0 / bframes=3 / b_pyramid=2 / b_adapt=2 / b_bias=0 / direct=3 / weightb=1 / open_gop=0 / weightp=2 / keyint=250 / keyint_min=25 / scenecut=40 / intra_refresh=0 / rc_lookahead=50 / rc=crf / mbtree=1 / crf=21.0 / qcomp=0.60 / qpmin=0 / qpmax=69 / qpstep=4 / ip_ratio=1.40 / aq=1:1.00
Default : Yes
Forced : No
Audio #1
ID : 2
Format : AC-3
Format/Info : Audio Coding 3
Mode extension : CM (complete main)
Format settings, Endianness : Big
Codec ID : A_AC3
Duration : 43mn 44s
Bit rate mode : Constant
Bit rate : 192 Kbps
Channel(s) : 2 channels
Channel positions : Front: L R
Sampling rate : 48.0 KHz
Bit depth : 16 bits
Compression mode : Lossy
Stream size : 60.1 MiB (6%)
Language : Russian
Default : Yes
Forced : No
Audio #2
ID : 3
Format : AC-3
Format/Info : Audio Coding 3
Mode extension : CM (complete main)
Format settings, Endianness : Big
Codec ID : A_AC3
Duration : 43mn 44s
Bit rate mode : Constant
Bit rate : 384 Kbps
Channel(s) : 6 channels
Channel positions : Front: L C R, Side: L R, LFE
Sampling rate : 48.0 KHz
Bit depth : 16 bits
Compression mode : Lossy
Delay relative to video : 32ms
Stream size : 120 MiB (12%)
Language : English
Default : No
Forced : No
Other forum [Profile] [PM]
Display posts from previous:    
Reply to topic

The time now is: Today 07:57

All times are GMT + 3 Hours



You cannot post new topics in this forum
You cannot reply to topics in this forum
You cannot edit your posts in this forum
You cannot delete your posts in this forum
You cannot vote in polls in this forum
You cannot attach files in this forum
You cannot download files in this forum