Today is a free download without charge Download

The Black Crowes - Live At Hard Rock Calling [2013, Hard Rock, Southern Rock, HDTVRip 720p]

Reply to topic
 
Author
Message

Omen ®

Longevity: 8 years 3 months

Posts: 181087

Торрент-статистика

Post 21-Sep-2013 19:33

[Quote]

The Black Crowes - Live At Hard Rock Calling
Жанр: Hard Rock, Southern Rock
Продолжительность: 00:12:43
Год выпуска: 2013
Описание: Неполное выступление на Hard Rock Calling 30.06.2013

Треклист
:
01. Sting Me
02. Hard to Handle
03. Hush
Качество: HDTVRip 720p
Контейнер: MKV
Видео кодек: H.264
Аудио кодек: AC3
Видео: AVC, 1280x720, 16:9, 5520 Kbps, 25 fps
Аудио: AC3, 384 Kbps, 48 KHz, 2 ch

MediaInfo

GeneralUnique ID : 209830974332213293998398126938315899597 (0x9DDBF9C5AE8ED1D7895C9A9CFFCD42CD)Complete name : K:\The_Black_Crowes-Hard_Rock_Calling_(2013)-720p-x264-2013-SRPx\the_black_crowes-hard_rock_calling_(2013)-720p-x264-2013-srpx.mkvFormat : MatroskaFormat version : Version 2File size : 548 MiBDuration : 12mn 43sOverall bit rate : 6 024 KbpsEncoded date : UTC 2013-08-22 12:54:56Writing application : mkvmerge v5.8.0 ('No Sleep / Pillow') built on Sep 2 2012 15:37:04Writing library : libebml v1.2.3 + libmatroska v1.3.0
VideoID : 1Format : AVCFormat/Info : Advanced Video CodecFormat profile : [email protected] settings, CABAC : YesFormat settings, ReFrames : 5 framesCodec ID : V_MPEG4/ISO/AVCDuration : 12mn 43sBit rate : 5 520 KbpsWidth : 1 280 pixelsHeight : 720 pixelsDisplay aspect ratio : 16:9Frame rate : 25.000 fpsColor space : YUVChroma subsampling : 4:2:0Bit depth : 8 bitsScan type : ProgressiveBits/(Pixel*Frame) : 0.240Stream size : 502 MiB (92%)Writing library : x264 core 135 r2345 f0c1c53Encoding settings : cabac=1 / ref=5 / deblock=1:-1:-1 / analyse=0x3:0x113 / me=umh / subme=10 / psy=1 / psy_rd=1.00:0.00 / mixed_ref=1 / me_range=24 / chroma_me=1 / trellis=2 / 8x8dct=1 / cqm=0 / deadzone=21,11 / fast_pskip=1 / chroma_qp_offset=-2 / threads=6 / lookahead_threads=1 / sliced_threads=0 / nr=0 / decimate=1 / interlaced=0 / bluray_compat=0 / constrained_intra=0 / bframes=16 / b_pyramid=2 / b_adapt=1 / b_bias=0 / direct=3 / weightb=1 / open_gop=0 / weightp=2 / keyint=250 / keyint_min=25 / scenecut=40 / intra_refresh=0 / rc_lookahead=40 / rc=crf / mbtree=1 / crf=18.0 / qcomp=0.60 / qpmin=0 / qpmax=69 / qpstep=4 / ip_ratio=1.40 / aq=1:1.00Language : EnglishDefault : YesForced : No
AudioID : 2Format : AC-3Format/Info : Audio Coding 3Mode extension : CM (complete main)Format settings, Endianness : BigCodec ID : A_AC3Duration : 12mn 43sBit rate mode : ConstantBit rate : 384 KbpsChannel(s) : 2 channelsChannel positions : Front: L RSampling rate : 48.0 KHzBit depth : 16 bitsCompression mode : LossyDelay relative to video : 310msStream size : 34.9 MiB (6%)Default : YesForced : No

Скриншоты


Other forum [Profile] [PM]
Display posts from previous:    
Reply to topic

The time now is: Today 08:53

All times are GMT + 3 Hours



You cannot post new topics in this forum
You cannot reply to topics in this forum
You cannot edit your posts in this forum
You cannot delete your posts in this forum
You cannot vote in polls in this forum
You cannot attach files in this forum
You cannot download files in this forum