Today is a free download without charge Download

Eagles - Live at the Capital Centre, March 1977 (History of The Eagles, Disc 3) [2013 г., Rock, Blu-ray]

Reply to topic
 
Author
Message

Omen ®

Longevity: 8 years 3 months

Posts: 181087

Торрент-статистика

Post 21-Sep-2013 19:33

[Quote]

Eagles - Live at the Capital Centre, March 1977- Страна: US
Жанр: Rock
Продолжительность: 00:45:34
Год выпуска: 2013 г.-Описание:
Бонусный Blu-ray к Deluxe Edition History of the Eagles с ранее не издававшимся концертом в Largo, MD, Capital Centre 21-22 марта 1977 в ходе легендарного тура Hotel California.
Треклист:
01. Hotel California
02. New Kid In Town
03. Take It To The Limit
04. One Of These Nights
05. Lyin' Eyes
06. Rocky Mountain Way
07. Best Of My Love
08. Take It Easy-Состав:
Glenn Frey: guitar, piano, vocals
Don Henley: drums, vocals
Joe Walsh: guitar, vocals
Don Felder: guitar, vocals
Randy Meisner: bass, vocals-Качество: Blu-ray
Контейнер: BDMV
Видео кодек: H.264
Аудио кодек: DTS-HD, PCM
Видео: MPEG-4 AVC Video / 29834 kbps / 1080i / 29,970 fps / 16:9 /
Аудио #1: LPCM Audio / 2.0 / 48 kHz / 2304 kbps / 24-bit
Аудио #2: DTS-HD Master Audio / 5.1 / 48 kHz / 5402 kbps / 24-bit (DTS Core: 5.1 / 48 kHz / 1509 kbps / 24-bit)

BDInfo

Disc Title: EAGLES LIVE AT THE CAPITAL CENTRE MARCH 1977Disc Size: 13 669 562 731 bytesProtection: AACSBD-Java: YesBDInfo: 0.5.8
Notes:
BDINFO HOME: Cinema Squid http://www.cinemasquid.com/blu-ray/tools/bdinfo
INCLUDES FORUMS REPORT FOR: AVS Forum Blu-ray Audio and Video Specifications Thread http://www.avsforum.com/avs-vb/showthread.php?t=1155731
********************PLAYLIST: 00002.MPLS********************
Код:
Total   Video
Title                                                           Codec   Length  Movie Size      Disc Size       Bitrate Bitrate Main Audio Track                          Secondary Audio Track
-----                                                           ------  ------- --------------  --------------  ------- ------- ------------------                        ---------------------
00002.MPLS                                                      AVC     0:45:34 13 518 766 080  13 669 562 731  39,55   29,83   LPCM 2.0 2304Kbps (48kHz/24-bit)          DTS-HD Master 5.1 5402Kbps (48kHz/24-bit)
Код:
DISC INFO:
Disc Title:     EAGLES LIVE AT THE CAPITAL CENTRE MARCH 1977
Disc Size:      13 669 562 731 bytes
Protection:     AACS
BD-Java:        Yes
BDInfo:         0.5.8
PLAYLIST REPORT:
Name:                   00002.MPLS
Length:                 0:45:34.364 (h:m:s.ms)
Size:                   13 518 766 080 bytes
Total Bitrate:          39,55 Mbps
VIDEO:
Codec                   Bitrate             Description
-----                   -------             -----------
MPEG-4 AVC Video        29834 kbps          1080i / 29,970 fps / 16:9 / High Profile 4.1
AUDIO:
Codec                           Language        Bitrate         Description
-----                           --------        -------         -----------
LPCM Audio                      English         2304 kbps       2.0 / 48 kHz / 2304 kbps / 24-bit
DTS-HD Master Audio             English         5402 kbps       5.1 / 48 kHz / 5402 kbps / 24-bit (DTS Core: 5.1 / 48 kHz / 1509 kbps / 24-bit)
FILES:
Name            Time In         Length          Size            Total Bitrate
----            -------         ------          ----            -------------
00002.M2TS      0:00:00.000     0:45:34.364     13 518 766 080  39 552
CHAPTERS:
Number          Time In         Length          Avg Video Rate  Max 1-Sec Rate  Max 1-Sec Time  Max 5-Sec Rate  Max 5-Sec Time  Max 10Sec Rate  Max 10Sec Time  Avg Frame Size  Max Frame Size  Max Frame Time
------          -------         ------          --------------  --------------  --------------  --------------  --------------  --------------  --------------  --------------  --------------  --------------
1               0:00:00.000     0:45:34.364     29 834 kbps     47 776 kbps     00:07:11.931    35 146 kbps     00:19:45.851    33 492 kbps     00:27:32.617    124 432 bytes   470 492 bytes   00:45:12.676
STREAM DIAGNOSTICS:
File            PID             Type            Codec           Language                Seconds                 Bitrate                 Bytes           Packets
----            ---             ----            -----           --------                --------------          --------------          -------------   -----
00002.M2TS      4113 (0x1011)   0x1B            AVC                                     2734,298                29 835                  10 197 075 045  55 467 107
00002.M2TS      4352 (0x1100)   0x80            LPCM            eng (English)           2734,298                2 304                   787 469 516     4 362 712
00002.M2TS      4353 (0x1101)   0x86            DTS-HD MA       eng (English)           2734,298                5 402                   1 846 320 116   10 458 920
QUICK SUMMARY:
Disc Title: EAGLES LIVE AT THE CAPITAL CENTRE MARCH 1977Disc Size: 13 669 562 731 bytesProtection: AACSBD-Java: YesPlaylist: 00002.MPLSSize: 13 518 766 080 bytesLength: 0:45:34.364Total Bitrate: 39,55 MbpsVideo: MPEG-4 AVC Video / 29834 kbps / 1080i / 29,970 fps / 16:9 / High Profile 4.1Audio: English / LPCM Audio / 2.0 / 48 kHz / 2304 kbps / 24-bitAudio: English / DTS-HD Master Audio / 5.1 / 48 kHz / 5402 kbps / 24-bit (DTS Core: 5.1 / 48 kHz / 1509 kbps / 24-bit)
********************PLAYLIST: 01002.MPLS********************
Код:
Total   Video
Title                                                           Codec   Length  Movie Size      Disc Size       Bitrate Bitrate Main Audio Track                          Secondary Audio Track
-----                                                           ------  ------- --------------  --------------  ------- ------- ------------------                        ---------------------
01002.MPLS                                                      AVC     0:45:34 13 518 766 080  13 669 562 731  39,55   29,83   LPCM 2.0 2304Kbps (48kHz/24-bit)          DTS-HD Master 5.1 5402Kbps (48kHz/24-bit)
Код:
DISC INFO:
Disc Title:     EAGLES LIVE AT THE CAPITAL CENTRE MARCH 1977
Disc Size:      13 669 562 731 bytes
Protection:     AACS
BD-Java:        Yes
BDInfo:         0.5.8
PLAYLIST REPORT:
Name:                   01002.MPLS
Length:                 0:45:34.364 (h:m:s.ms)
Size:                   13 518 766 080 bytes
Total Bitrate:          39,55 Mbps
VIDEO:
Codec                   Bitrate             Description
-----                   -------             -----------
MPEG-4 AVC Video        29834 kbps          1080i / 29,970 fps / 16:9 / High Profile 4.1
AUDIO:
Codec                           Language        Bitrate         Description
-----                           --------        -------         -----------
LPCM Audio                      English         2304 kbps       2.0 / 48 kHz / 2304 kbps / 24-bit
DTS-HD Master Audio             English         5402 kbps       5.1 / 48 kHz / 5402 kbps / 24-bit (DTS Core: 5.1 / 48 kHz / 1509 kbps / 24-bit)
FILES:
Name            Time In         Length          Size            Total Bitrate
----            -------         ------          ----            -------------
00002.M2TS      0:00:00.000     0:45:34.364     13 518 766 080  39 552
CHAPTERS:
Number          Time In         Length          Avg Video Rate  Max 1-Sec Rate  Max 1-Sec Time  Max 5-Sec Rate  Max 5-Sec Time  Max 10Sec Rate  Max 10Sec Time  Avg Frame Size  Max Frame Size  Max Frame Time
------          -------         ------          --------------  --------------  --------------  --------------  --------------  --------------  --------------  --------------  --------------  --------------
1               0:00:00.000     0:06:51.744     30 243 kbps     46 886 kbps     00:00:02.068    34 469 kbps     00:00:02.035    32 943 kbps     00:05:37.804    126 130 bytes   466 256 bytes   00:00:02.235
2               0:06:51.744     0:05:25.258     29 698 kbps     47 776 kbps     00:07:11.931    33 210 kbps     00:06:51.744    31 962 kbps     00:07:21.274    123 866 bytes   338 868 bytes   00:06:51.844
3               0:12:17.002     0:05:02.969     29 832 kbps     40 724 kbps     00:12:19.271    34 702 kbps     00:17:10.562    31 892 kbps     00:16:41.000    124 424 bytes   278 565 bytes   00:15:27.826
4               0:17:19.972     0:03:50.029     30 506 kbps     40 824 kbps     00:19:53.258    35 146 kbps     00:19:45.851    33 432 kbps     00:19:46.351    127 234 bytes   283 696 bytes   00:18:33.679
5               0:21:10.002     0:06:19.979     30 084 kbps     45 991 kbps     00:21:10.869    33 986 kbps     00:25:38.737    31 823 kbps     00:25:37.435    125 475 bytes   338 601 bytes   00:21:11.470
6               0:27:29.981     0:07:33.986     30 005 kbps     43 691 kbps     00:27:32.550    34 688 kbps     00:27:32.584    33 492 kbps     00:27:32.617    125 144 bytes   293 263 bytes   00:27:32.884
7               0:35:03.968     0:04:32.739     29 996 kbps     46 433 kbps     00:35:05.002    34 360 kbps     00:35:05.069    33 145 kbps     00:39:26.130    125 107 bytes   336 471 bytes   00:35:05.369
8               0:39:36.707     0:05:55.688     28 606 kbps     41 924 kbps     00:45:00.064    34 104 kbps     00:41:15.706    32 421 kbps     00:40:48.646    119 312 bytes   470 492 bytes   00:45:12.676
9               0:45:32.396     0:00:01.968     75 kbps         86 kbps         00:45:32.796    0 kbps          00:00:00.000    0 kbps          00:00:00.000    318 bytes       677 bytes       00:45:32.896
STREAM DIAGNOSTICS:
File            PID             Type            Codec           Language                Seconds                 Bitrate                 Bytes           Packets
----            ---             ----            -----           --------                --------------          --------------          -------------   -----
00002.M2TS      4113 (0x1011)   0x1B            AVC                                     2734,298                29 835                  10 197 075 045  55 467 107
00002.M2TS      4352 (0x1100)   0x80            LPCM            eng (English)           2734,298                2 304                   787 469 516     4 362 712
00002.M2TS      4353 (0x1101)   0x86            DTS-HD MA       eng (English)           2734,298                5 402                   1 846 320 116   10 458 920
QUICK SUMMARY:
Disc Title: EAGLES LIVE AT THE CAPITAL CENTRE MARCH 1977Disc Size: 13 669 562 731 bytesProtection: AACSBD-Java: YesPlaylist: 01002.MPLSSize: 13 518 766 080 bytesLength: 0:45:34.364Total Bitrate: 39,55 MbpsVideo: MPEG-4 AVC Video / 29834 kbps / 1080i / 29,970 fps / 16:9 / High Profile 4.1Audio: English / LPCM Audio / 2.0 / 48 kHz / 2304 kbps / 24-bitAudio: English / DTS-HD Master Audio / 5.1 / 48 kHz / 5402 kbps / 24-bit (DTS Core: 5.1 / 48 kHz / 1509 kbps / 24-bit)
********************PLAYLIST: 00001.MPLS********************
Код:
Total   Video
Title                                                           Codec   Length  Movie Size      Disc Size       Bitrate Bitrate Main Audio Track                          Secondary Audio Track
-----                                                           ------  ------- --------------  --------------  ------- ------- ------------------                        ---------------------
00001.MPLS                                                      AVC     0:01:02 111 599 616     13 669 562 731  14,39   9,60    LPCM 2.0 2304Kbps (48kHz/24-bit)          DTS-HD Master 5.1 1510Kbps (48kHz/24-bit)
Код:
DISC INFO:
Disc Title:     EAGLES LIVE AT THE CAPITAL CENTRE MARCH 1977
Disc Size:      13 669 562 731 bytes
Protection:     AACS
BD-Java:        Yes
BDInfo:         0.5.8
PLAYLIST REPORT:
Name:                   00001.MPLS
Length:                 0:01:02.062 (h:m:s.ms)
Size:                   111 599 616 bytes
Total Bitrate:          14,39 Mbps
VIDEO:
Codec                   Bitrate             Description
-----                   -------             -----------
MPEG-4 AVC Video        9600 kbps           1080i / 29,970 fps / 16:9 / High Profile 4.1
AUDIO:
Codec                           Language        Bitrate         Description
-----                           --------        -------         -----------
LPCM Audio                      Undetermined    2304 kbps       2.0 / 48 kHz / 2304 kbps / 24-bit
DTS-HD Master Audio             Undetermined    1510 kbps       5.1 / 48 kHz / 1510 kbps / 24-bit (DTS Core: 5.1 / 48 kHz / 1509 kbps / 24-bit)
FILES:
Name            Time In         Length          Size            Total Bitrate
----            -------         ------          ----            -------------
00001.M2TS      0:00:00.000     0:01:02.062     111 599 616     14 386
CHAPTERS:
Number          Time In         Length          Avg Video Rate  Max 1-Sec Rate  Max 1-Sec Time  Max 5-Sec Rate  Max 5-Sec Time  Max 10Sec Rate  Max 10Sec Time  Avg Frame Size  Max Frame Size  Max Frame Time
------          -------         ------          --------------  --------------  --------------  --------------  --------------  --------------  --------------  --------------  --------------  --------------
1               0:00:00.000     0:01:02.062     9 600 kbps      14 720 kbps     00:00:01.568    9 936 kbps      00:00:29.963    9 914 kbps      00:00:28.294    40 039 bytes    680 696 bytes   00:00:00.834
STREAM DIAGNOSTICS:
File            PID             Type            Codec           Language                Seconds                 Bitrate                 Bytes           Packets
----            ---             ----            -----           --------                --------------          --------------          -------------   -----
00001.M2TS      4113 (0x1011)   0x1B            AVC                                     61,995                  9 610                   74 472 309      405 928
00001.M2TS      4352 (0x1100)   0x80            LPCM            und (Undetermined)      61,995                  2 313                   17 924 372      99 304
00001.M2TS      4353 (0x1101)   0x86            DTS-HD MA       und (Undetermined)      61,995                  1 512                   11 716 640      73 229
QUICK SUMMARY:
Disc Title: EAGLES LIVE AT THE CAPITAL CENTRE MARCH 1977Disc Size: 13 669 562 731 bytesProtection: AACSBD-Java: YesPlaylist: 00001.MPLSSize: 111 599 616 bytesLength: 0:01:02.062Total Bitrate: 14,39 MbpsVideo: MPEG-4 AVC Video / 9600 kbps / 1080i / 29,970 fps / 16:9 / High Profile 4.1Audio: Undetermined / LPCM Audio / 2.0 / 48 kHz / 2304 kbps / 24-bitAudio: Undetermined / DTS-HD Master Audio / 5.1 / 48 kHz / 1510 kbps / 24-bit (DTS Core: 5.1 / 48 kHz / 1509 kbps / 24-bit)
********************PLAYLIST: 01001.MPLS********************
Код:
Total   Video
Title                                                           Codec   Length  Movie Size      Disc Size       Bitrate Bitrate Main Audio Track                          Secondary Audio Track
-----                                                           ------  ------- --------------  --------------  ------- ------- ------------------                        ---------------------
01001.MPLS                                                      AVC     0:01:02 111 599 616     13 669 562 731  14,39   9,60    LPCM 2.0 2304Kbps (48kHz/24-bit)          DTS-HD Master 5.1 1510Kbps (48kHz/24-bit)
Код:
DISC INFO:
Disc Title:     EAGLES LIVE AT THE CAPITAL CENTRE MARCH 1977
Disc Size:      13 669 562 731 bytes
Protection:     AACS
BD-Java:        Yes
BDInfo:         0.5.8
PLAYLIST REPORT:
Name:                   01001.MPLS
Length:                 0:01:02.062 (h:m:s.ms)
Size:                   111 599 616 bytes
Total Bitrate:          14,39 Mbps
VIDEO:
Codec                   Bitrate             Description
-----                   -------             -----------
MPEG-4 AVC Video        9600 kbps           1080i / 29,970 fps / 16:9 / High Profile 4.1
AUDIO:
Codec                           Language        Bitrate         Description
-----                           --------        -------         -----------
LPCM Audio                      Undetermined    2304 kbps       2.0 / 48 kHz / 2304 kbps / 24-bit
DTS-HD Master Audio             Undetermined    1510 kbps       5.1 / 48 kHz / 1510 kbps / 24-bit (DTS Core: 5.1 / 48 kHz / 1509 kbps / 24-bit)
FILES:
Name            Time In         Length          Size            Total Bitrate
----            -------         ------          ----            -------------
00001.M2TS      0:00:00.000     0:01:02.062     111 599 616     14 386
CHAPTERS:
Number          Time In         Length          Avg Video Rate  Max 1-Sec Rate  Max 1-Sec Time  Max 5-Sec Rate  Max 5-Sec Time  Max 10Sec Rate  Max 10Sec Time  Avg Frame Size  Max Frame Size  Max Frame Time
------          -------         ------          --------------  --------------  --------------  --------------  --------------  --------------  --------------  --------------  --------------  --------------
1               0:00:00.000     0:00:01.000     13 451 kbps     8 513 kbps      00:00:00.000    0 kbps          00:00:00.000    0 kbps          00:00:00.000    54 292 bytes    680 696 bytes   00:00:00.834
2               0:00:01.000     0:00:58.058     9 593 kbps      14 720 kbps     00:00:01.568    9 936 kbps      00:00:29.963    9 914 kbps      00:00:28.294    40 009 bytes    680 696 bytes   00:00:16.449
3               0:00:59.059     0:00:03.003     8 453 kbps      14 326 kbps     00:00:59.793    0 kbps          00:00:00.000    0 kbps          00:00:00.000    35 652 bytes    680 694 bytes   00:00:59.826
STREAM DIAGNOSTICS:
File            PID             Type            Codec           Language                Seconds                 Bitrate                 Bytes           Packets
----            ---             ----            -----           --------                --------------          --------------          -------------   -----
00001.M2TS      4113 (0x1011)   0x1B            AVC                                     61,995                  9 610                   74 472 309      405 928
00001.M2TS      4352 (0x1100)   0x80            LPCM            und (Undetermined)      61,995                  2 313                   17 924 372      99 304
00001.M2TS      4353 (0x1101)   0x86            DTS-HD MA       und (Undetermined)      61,995                  1 512                   11 716 640      73 229
QUICK SUMMARY:
Disc Title: EAGLES LIVE AT THE CAPITAL CENTRE MARCH 1977Disc Size: 13 669 562 731 bytesProtection: AACSBD-Java: YesPlaylist: 01001.MPLSSize: 111 599 616 bytesLength: 0:01:02.062Total Bitrate: 14,39 MbpsVideo: MPEG-4 AVC Video / 9600 kbps / 1080i / 29,970 fps / 16:9 / High Profile 4.1Audio: Undetermined / LPCM Audio / 2.0 / 48 kHz / 2304 kbps / 24-bitAudio: Undetermined / DTS-HD Master Audio / 5.1 / 48 kHz / 1510 kbps / 24-bit (DTS Core: 5.1 / 48 kHz / 1509 kbps / 24-bit)

Скриншоты

Other forum [Profile] [PM]
Display posts from previous:    
Reply to topic

The time now is: Today 21:58

All times are GMT + 3 Hours



You cannot post new topics in this forum
You cannot reply to topics in this forum
You cannot edit your posts in this forum
You cannot delete your posts in this forum
You cannot vote in polls in this forum
You cannot attach files in this forum
You cannot download files in this forum