Today is a free download without charge Download

Любовь с риском для жизни / La chance de ma vie (Николя Кюш) [2010 г., мелодрама, комедия, ВDRip1080p]

Reply to topic
 
Author
Message

Delia ®

Gender:

Longevity: 9 years 6 months

Posts: 1821

Торрент-статистика

Post 29-Sep-2011 22:49

[Quote]

Любовь с риском для жизни La chance de ma vie Год выпуска: 2010
Страна: Франция, Бельгия
Жанр: мелодрама, комедия
Продолжительность: 01:31:08
Перевод: Дублированный
Режиссер: Николя Кюш
Продюссер: Оливье Делбоск, Эрик Йехельманн, Марк Миссонье
Сценарий: Лорен Тернер, Люк Босси
Бюджет: $1 114 625
Премьера в мире: 5 ноября 2010
В ролях: Вирджиния Эфира, Франсуа-Ксавье Демезон, Армель Дойч, Рафаэль Персонас, Томас Н’Гиоль, Брижит Роюан, Ив Жак, Мари-Кристин Адам, Эли Семун,Франсис Перрен, Фрэнк Молинаро, Джералд Марти
Описание: У Жюльена серьезная проблема. Он прекрасный консультант в брачных вопросах, но не одна женщина не остается с ним дольше, чем на две недели. Он приносит им несчастье. Не абстрактную неудачу, а вполне конкретное несчастье: его женщины или попадают в больницу несколько раз в неделю, или у них рушится карьера, или они ссорятся навсегда со своими близкими. Джоанна убедится в этом на собственном опыте. В день, когда их пути пересеклись ее карьера находилась на взлете, ее личная жизнь наконец наладилась... Все это может очень быстро измениться.
Качество: ВDRip1080р
Формат: MKV
Видео кодек: H.264
Аудио кодек: AC3
Видео: English, 8619 Кбит/сек, 1920*1040 (16:9), в 23,976 кадр/сек, AVC ([email protected])
Аудио: Russian, 640 Кбит/сек, 48,0 КГц, 16 бит, 6 канала(ов), AC-3
Аудио:French, 320 Кбит/сек, 48,0 КГц, 16 бит, 6 канала(ов), AC-3
Субтитры:Russian, PGS

MI:

Код:
Общее
Уникальный идентификатор         : 177938382640218163113516998742413438875 (0x85DDAF99A666AF9DAC5DB4C633E46F9B)
Полное имя                       : E:\торрент\La chance de ma vie (2010)BDRip1080p.mkv
Формат                           : Matroska
Размер файла                     : 6,10 Гбайт
Продолжительность                : 1 ч. 31 м.
Общий поток                      : 9581 Кбит/сек
Дата кодирования                 : UTC 2011-09-29 18:54:25
Программа кодирования            : mkvmerge v5.0.0 ('Die Wahre Liebe') built on Sep 25 2011 20:33:49
Библиотека кодирования           : libebml v1.2.2 + libmatroska v1.3.0
Видео
Идентификатор                    : 1
Формат                           : AVC
Формат/Информация                : Advanced Video Codec
Профиль формата                  : [email protected]
Параметр CABAC формата           : Да
Параметр ReFrames формата        : 4 кадры
Идентификатор кодека             : V_MPEG4/ISO/AVC
Продолжительность                : 1 ч. 31 м.
Битрейт                          : 8619 Кбит/сек
Ширина                           : 1920 пикс.
Высота                           : 1040 пикс.
Соотношение сторон               : 16:9
Частота кадров                   : 23,976 кадр/сек
Цветовое пространство            : YUV
Подвыборка цветности             : 4:2:0
Битовая глубина                  : 8 бит
Тип развёртки                    : Прогрессивная
Бит/(Пиксели*Кадры)              : 0.180
Размер потока                    : 5,37 Гбайт (88%)
Заголовок                        : FREEISLAND
Библиотека кодирования           : x264 core 118 r2085 8a62835
Настройки программы              : cabac=1 / ref=4 / deblock=1:-3:-3 / analyse=0x3:0x133 / me=umh / subme=9 / psy=1 / psy_rd=1.00:0.25 / mixed_ref=1 / me_range=32 / chroma_me=1 / trellis=2 / 8x8dct=1 / cqm=0 / deadzone=21,11 / fast_pskip=0 / chroma_qp_offset=-4 / threads=6 / sliced_threads=0 / nr=4 / decimate=1 / interlaced=0 / bluray_compat=0 / constrained_intra=0 / bframes=6 / b_pyramid=2 / b_adapt=2 / b_bias=0 / direct=3 / weightb=1 / open_gop=0 / weightp=2 / keyint=250 / keyint_min=23 / scenecut=40 / intra_refresh=0 / rc_lookahead=60 / rc=2pass / mbtree=1 / bitrate=8619 / ratetol=1.0 / qcomp=0.80 / qpmin=10 / qpmax=51 / qpstep=4 / cplxblur=20.0 / qblur=0.5 / ip_ratio=1.40 / aq=1:1.00
Язык                             : English
Аудио #1
Идентификатор                    : 2
Формат                           : AC-3
Формат/Информация                : Audio Coding 3
Расширение режима                : CM (complete main)
Идентификатор кодека             : A_AC3
Продолжительность                : 1 ч. 31 м.
Вид битрейта                     : Постоянный
Битрейт                          : 640 Кбит/сек
Канал(ы)                         : 6 канала(ов)
Расположение каналов             : Front: L C R, Side: L R, LFE
Частота                          : 48,0 КГц
Битовая глубина                  : 16 бит
Метод сжатия                     : С потерями
Размер потока                    : 417 Мбайт (7%)
Язык                             : Russian
Аудио #2
Идентификатор                    : 3
Формат                           : AC-3
Формат/Информация                : Audio Coding 3
Расширение режима                : CM (complete main)
Идентификатор кодека             : A_AC3
Продолжительность                : 1 ч. 31 м.
Вид битрейта                     : Постоянный
Битрейт                          : 320 Кбит/сек
Канал(ы)                         : 6 канала(ов)
Расположение каналов             : Front: L C R, Side: L R, LFE
Частота                          : 48,0 КГц
Битовая глубина                  : 16 бит
Метод сжатия                     : С потерями
Размер потока                    : 209 Мбайт (3%)
Язык                             : French
Текст
Идентификатор                    : 4
Формат                           : PGS
Режим смешивания                 : zlib
Идентификатор кодека             : S_HDMV/PGS
Идентификатор кодека/Информация  : The same subtitle format used on BDs/HD-DVDs
Язык                             : Russian
Меню
00:00:00.000                     : en:Chapter 01
00:09:53.843                     : en:Chapter 02
00:16:33.117                     : en:Chapter 03
00:22:19.588                     : en:Chapter 04
00:30:07.597                     : en:Chapter 05
00:38:24.176                     : en:Chapter 06
00:44:52.940                     : en:Chapter 07
00:55:43.798                     : en:Chapter 08
01:04:13.099                     : en:Chapter 09
01:09:17.278                     : en:Chapter 10
01:13:08.258                     : en:Chapter 11
01:18:44.594                     : en:Chapter 12
01:31:08.337                     : en:Chapter 13

Скриншоты

       
       

_________________
Человек – это канат, натянутый между животным и сверхчеловеком, – канат над пропастью.
В человеке ценно то, что он мост, а не цель. Фридрих Ницше
Other forum [Profile] [PM]
Similar theme
Forum Topic Author Torrent Replies Last Post
./templates/default/images/folder_dl.gif Обучающая и научно-популярная литература Димитрий Семеник | Наполни жизнь любовью [2010] [MP3] Omen
1 | 0

0 | 1609

6

2013-01-14 21:04
Omen Latest
./templates/default/images/folder_dl.gif Психология, Тренинг, Саморазвитие [Dorling Kindersley / Дорлинг Киндерсли] Becker-Phelps L., Kaye M. / Беккер-Фелпс Л., Кэй М. - Love: The Psychology of Attraction / Любовь: Психология привлекательности [2016, PDF, ENG] Omen
1 | 0

0 | 578

1

2016-09-20 01:00
Omen Latest
./templates/default/images/folder_dl.gif Фильмы Как добраться мне потом отсюда? ([2017 г., Amateur, Blowjob, Dogging, CamRip, 720p] (Любовники) Anonymous
1 | 0

0 | 11518

52

2017-07-16 15:30
Anonymous Latest
Display posts from previous:    
Reply to topic

The time now is: Today 08:40

All times are GMT + 3 Hours



You cannot post new topics in this forum
You cannot reply to topics in this forum
You cannot edit your posts in this forum
You cannot delete your posts in this forum
You cannot vote in polls in this forum
You cannot attach files in this forum
You cannot download files in this forum