Today is a free download without charge Download

Megadeth - Countdown to Extinction:Live [2013, Thrash Metal, BDRip 720p]

Reply to topic
 
Author
Message

Omen ®

Longevity: 8 years 3 months

Posts: 181087

Торрент-статистика

Post 21-Sep-2013 15:25

[Quote]

Megadeth - Countdown to Extinction:Live
Жанр: Thrash Metal
Продолжительность: 92 min
Год выпуска: 2013
Описание: Countdown to Extinction:Live - новый концертный релиз американской группы Megadeth.Концерт записан в Помоне в декабре 2012.
Качество: BDRip 720p
Контейнер: MKV
Видео кодек: H.264
Аудио кодек: AC3
Видео: 1280*720 @ 4641 kbps
Аудио: 5.1 @ 448 kbps

Отчёт MediaInfo / BDInfo

ОбщееУникальный идентификатор : 229670828064513519424320570091660247700 (0xACC8FE1546FD647B88EC910CFC060294)Полное имя : C:\Users\Andrey.k\Desktop\Megadeth.Countdown.to.Extinction.Live.2013.720p.MBluRay.x264\Megadeth.Countdown.to.Extinction.Live.2013.720p.MBluRay.x264.mkvФормат : MatroskaВерсия формата : Version 4 / Version 2Размер файла : 3,28 ГбайтПродолжительность : 1 ч. 32 м.Общий поток : 5090 Кбит/секНазвание фильма : ©FKKHDДата кодирования : UTC 2013-09-20 21:48:14Программа кодирования : mkvmerge v6.4.1 ('Omega Point') built on Sep 16 2013 22:05:10Библиотека кодирования : libebml v1.3.0 + libmatroska v1.4.1
ВидеоИдентификатор : 1Формат : AVCФормат/Информация : Advanced Video CodecПрофиль формата : [email protected]4.1Параметр CABAC формата : ДаПараметр ReFrames формата : 5 кадровИдентификатор кодека : V_MPEG4/ISO/AVCПродолжительность : 1 ч. 32 м.Битрейт : 4641 Кбит/секШирина : 1280 пикселейВысота : 720 пикселейСоотношение сторон : 16:9Режим частоты кадров : ПостоянныйЧастота кадров : 29,970 кадров/секЦветовое пространство : YUVСубдискретизация насыщенности : 4:2:0Битовая глубина : 8 битТип развёртки : ПрогрессивнаяБит/(Пиксели*Кадры) : 0.168Размер потока : 2,92 Гбайт (89%)Заголовок : ©FKKHDБиблиотека кодирования : x264 core 138 r2358 9e941d1Настройки программы : cabac=1 / ref=5 / deblock=1:0:0 / analyse=0x3:0x133 / me=umh / subme=7 / psy=1 / psy_rd=1.00:0.00 / mixed_ref=1 / me_range=16 / chroma_me=1 / trellis=1 / 8x8dct=1 / cqm=0 / deadzone=21,11 / fast_pskip=0 / chroma_qp_offset=-2 / threads=6 / lookahead_threads=1 / sliced_threads=0 / nr=0 / decimate=1 / interlaced=0 / bluray_compat=0 / constrained_intra=0 / bframes=3 / b_pyramid=2 / b_adapt=1 / b_bias=0 / direct=1 / weightb=1 / open_gop=0 / weightp=1 / keyint=250 / keyint_min=25 / scenecut=40 / intra_refresh=0 / rc_lookahead=40 / rc=2pass / mbtree=1 / bitrate=4641 / ratetol=1.0 / qcomp=0.60 / qpmin=0 / qpmax=69 / qpstep=4 / cplxblur=20.0 / qblur=0.5 / ip_ratio=1.40 / aq=1:1.00Язык : EnglishDefault : ДаForced : Нет
АудиоИдентификатор : 2Формат : AC-3Формат/Информация : Audio Coding 3Расширение режима : CM (complete main)Параметр Endianness формата : BigИдентификатор кодека : A_AC3Продолжительность : 1 ч. 32 м.Вид битрейта : ПостоянныйБитрейт : 448 Кбит/секКаналы : 6 каналовРасположение каналов : Front: L C R, Side: L R, LFEЧастота : 48,0 КГцБитовая глубина : 16 битМетод сжатия : С потерямиРазмер потока : 295 Мбайт (9%)Заголовок : ©FKKHDDefault : ДаForced : Нет

Скриншоты


Трек-лист

01 Intro - Prince Of Darkness
02 Trust
03 Hangar 18
04 Public Enemy
05 Skin O' My Teeth
06 Symphony Of Destruction
07 Architecture Of Aggression
08 Foreclosure Of A Dream
09 Sweating Bullets
10 This Was My Life
11 Countdown To Extinction
12 High Speed Dirt
13 Psychotron
14 Captive Honour
15 Ashes In Your Mouth
16 She Wolf
17 Peace Sells
18 Holy Wars...The Punishment Due
19 Credits: Silent Scorn/ Dawn Patrol/Shadow Of Deth
20 Credits: Silent Scorn/Dawn Patrol/Shadow Of Deth
Other forum [Profile] [PM]
Display posts from previous:    
Reply to topic

The time now is: Today 14:41

All times are GMT + 3 Hours



You cannot post new topics in this forum
You cannot reply to topics in this forum
You cannot edit your posts in this forum
You cannot delete your posts in this forum
You cannot vote in polls in this forum
You cannot attach files in this forum
You cannot download files in this forum