Today is a free download without charge Download

Paradise Lost [email protected]rod 15.09.2013 [2013, Gothic Metal, HDCamRip]

Reply to topic
 
Author
Message

Omen ®

Longevity: 8 years 3 months

Posts: 181087

Торрент-статистика

Post 21-Sep-2013 11:22

[Quote]

Paradise Lost [email protected] 15.09.2013
Жанр: Gothic Metal
Продолжительность: 1:14:32
Год выпуска: 2013
Camera: Tomegatherion
Описание: http://zvuk.in/afisha/20569
01 Enchantment
02 Erased
03 Hallowed Land
04 Soul Courageous
05 Honesty In Death
06 Pity The Sadness
07 Praise Lamented Shade
08 One Second
09 In This We Dwell
10 As I Die
11 Tragic Idol
12 Requiem
13 The Rise Of Denial
14 Faith Divides Us
15 The Last Time
16 Say Just Words
Качество: HDCamRip
Контейнер: MP4
Видео кодек: H.264
Аудио кодек: AAC
Видео: AVC; 1920x1080 (16:9); 10,9 Mbps; 25 fps
Аудио: AAC LC; 253 Kbps; VBR; 2 ch; 16 bit

Отчёт MediaInfo / BDInfo

GeneralComplete name : G:\Torrent\_Мои раздачи\Paradise Lost NiNo 15.09.2013\Paradise Lost 02 - Erased.mp4Format : MPEG-4Format profile : Base Media / Version 2Codec ID : mp42File size : 279 MiBDuration : 3mn 30sOverall bit rate mode : VariableOverall bit rate : 11.1 MbpsEncoded date : UTC 2013-09-17 04:10:48Tagged date : UTC 2013-09-17 04:10:51©TIM : 00:00:00:00©TSC : 25©TSZ : 1
VideoID : 1Format : AVCFormat/Info : Advanced Video CodecFormat profile : [email protected] settings, CABAC : YesFormat settings, ReFrames : 3 framesFormat settings, GOP : M=4, N=25Codec ID : avc1Codec ID/Info : Advanced Video CodingDuration : 3mn 30sBit rate : 10.9 MbpsWidth : 1 920 pixelsHeight : 1 080 pixelsDisplay aspect ratio : 16:9Frame rate mode : ConstantFrame rate : 25.000 fpsStandard : PALColor space : YUVChroma subsampling : 4:2:0Bit depth : 8 bitsScan type : ProgressiveBits/(Pixel*Frame) : 0.210Stream size : 273 MiB (98%)Language : EnglishEncoded date : UTC 2013-09-17 04:10:48Tagged date : UTC 2013-09-17 04:10:48
AudioID : 2Format : AACFormat/Info : Advanced Audio CodecFormat profile : LCCodec ID : 40Duration : 3mn 30sSource duration : 3mn 30sBit rate mode : VariableBit rate : 253 KbpsMaximum bit rate : 356 KbpsChannel(s) : 2 channelsChannel positions : Front: L RSampling rate : 48.0 KHzCompression mode : LossyStream size : 6.36 MiB (2%)Source stream size : 6.36 MiB (2%)Language : EnglishEncoded date : UTC 2013-09-17 04:10:48Tagged date : UTC 2013-09-17 04:10:48mdhd_Duration : 210688

Скриншоты

Other forum [Profile] [PM]
Similar theme
Forum Topic Author Torrent Replies Last Post
./templates/default/images/folder_dl.gif Metal (Doom/Death Metal) [CD] Paradise Lost - Gothic - 1995, FLAC (image+.cue), lossless Omen
0 | 1

0 | 316

0

2015-01-03 15:02
Omen Latest
Display posts from previous:    
Reply to topic

The time now is: Today 09:57

All times are GMT + 3 Hours



You cannot post new topics in this forum
You cannot reply to topics in this forum
You cannot edit your posts in this forum
You cannot delete your posts in this forum
You cannot vote in polls in this forum
You cannot attach files in this forum
You cannot download files in this forum