Today is a free download without charge Download

Шерлок Холмс и чёрные человечки (Александр Бубнов) (6 серий) [2012, короткометражный анимационный фильм, WEBRip]

Reply to topic
 
Author
Message

Omen ®

Longevity: 7 years 11 months

Posts: 181087

Торрент-статистика

Post 21-Sep-2013 07:20

[Quote]

Шерлок Холмс и чёрные человечки Год выпуска: 2012
Страна: Украина Бубен
Жанр: короткометражный анимационный фильм : animated short film
Продолжительность: ~00:06:30 х 6 серий
Перевод: не требуется
Субтитры: отсутствуют- Режиссёр: Александр Бубнов- Описание: Эта история про знаменитого сыщика Шерлока Холмса и его неизменного спутника доктора Ватсона, которые расследуют запутанное дело о взрыве камина в Адмиралтействе и похищении из сейфа секретных документов. Зрители встретятся и с инспектором Лестрейдом, и с миссис Хадсон, и с начальником секретного отдела адмиралом Бенбоу, а также загадочными чёрными человечками.-- Качество: WEBRip |WEBRip 1080p|
Формат: AVI
Видео кодек: XviD
Аудио кодек: MP3
Видео: 720x400 , (1.80:1), 25 fps, XviD build 65 ~1351 kbps avg, 0.19 bit/pixel
Аудио: 44.100 kHz, MPEG Layer 3, 2 ch, ~128.00 kbps avg

MediaInfo

Общее
Полное имя : C:\Шерлок Холмс и чёрные человечки\Шерлок Холмс и чёрные человечки.2012.WEBRip\Шерлок Холмс и чёрные человечки.2012.WEBRip.1-я серия.avi
Формат : AVI
Формат/Информация : Audio Video Interleave
Размер файла : 68,9 Мбайт
Продолжительность : 6 м. 28 с.
Общий поток : 1490 Кбит/сек
Программа кодирования : VirtualDubMod 1.5.10.3 (build 2550/release)
Библиотека кодирования : VirtualDubMod build 2550/release
Видео
Идентификатор : 0
Формат : MPEG-4 Visual
Профиль формата : Advanced [email protected]
Параметр BVOP формата : 2
Параметр QPel формата : Нет
Параметр GMC формата : Без точки перехода
Параметр матрицы формата : Выборочная
Идентификатор кодека : XVID
Идентификатор кодека/Подсказка : XviD
Продолжительность : 6 м. 28 с.
Битрейт : 1352 Кбит/сек
Ширина : 720 пикселей
Высота : 400 пикселей
Соотношение сторон : 16:9
Частота кадров : 25,000 кадров/сек
Цветовое пространство : YUV
Субдискретизация насыщенности : 4:2:0
Битовая глубина : 8 бит
Тип развёртки : Прогрессивная
Метод сжатия : С потерями
Бит/(Пиксели*Кадры) : 0.188
Размер потока : 62,5 Мбайт (91%)
Библиотека кодирования : XviD 65
Аудио
Идентификатор : 1
Формат : MPEG Audio
Версия формата : Version 1
Профиль формата : Layer 3
Режим : Joint stereo
Расширение режима : MS Stereo
Идентификатор кодека : 55
Идентификатор кодека/Подсказка : MP3
Продолжительность : 6 м. 28 с.
Вид битрейта : Постоянный
Битрейт : 128 Кбит/сек
Каналы : 2 канала
Частота : 44,1 КГц
Метод сжатия : С потерями
Размер потока : 5,92 Мбайт (9%)
Выравнивание : Разделение по промежуткам
Продолжительность промежутка : 40 мс. (1,00 видеокадр)
Время предзагрузки промежутка : 500 мс.
Библиотека кодирования : LAME3.99r
Настройки программы : -m j -V 4 -q 3 -lowpass 17 -b 128
Other forum [Profile] [PM]
Display posts from previous:    
Reply to topic

The time now is: Today 14:12

All times are GMT + 3 Hours



You cannot post new topics in this forum
You cannot reply to topics in this forum
You cannot edit your posts in this forum
You cannot delete your posts in this forum
You cannot vote in polls in this forum
You cannot attach files in this forum
You cannot download files in this forum