Today is a free download without charge Download

Metallica - Rock in Rio V [2013, Heavy metal, HDTV 1080i]

Reply to topic
 
Author
Message

Omen ®

Longevity: 8 years 4 months

Posts: 181087

Торрент-статистика

Post 21-Sep-2013 07:20

[Quote]

Metallica - Rock in Rio V--
-
-Жанр: Heavy metal
Продолжительность: 2:10:01
Год выпуска: 2013--Треклист:
01. Hit the Lights
02. Master of Puppets
03. Holier Than Thou
04. Harvester of Sorrow
05. The Day that Never Comes
06. The Memory Remains
07. Wherever I May Roam
08. Welcome Home (Sanitarium)
09. Sad but True
10. ...And Justice for All
11. One
12. For Whom the Bell Tolls
13. Blackened
14. Nothing Else Matters
15. Enter Sandman
Encore:
16. Creeping Death
17. Battery
18. Seek & Destroy-Live at 19 Sep 2013 - Brazil--Доп. информация: Запись с канала MultishowHD сделана CELOBRAZiL.--Качество: HDTV 1080i
Контейнер: TS
Видео кодек: H.264
Аудио кодек: AC3
Видео: AVC (H.264), 1920x1080i, 29.97 fps, 8 435 Kbps
Аудио: MPEG Audio, 48.0 KHz, 192 Kbps (2 Ch.)
Аудио 2: AC-3, 48.0 KHz, 448 Kbps (6 Ch.)-
-

-
-

Отчёт MediaInfo / BDInfo

GeneralID : 1 (0x1)Complete name : C:\Users\admin\Desktop\Metallica Live @ Rock in Rio 5 (19 Sep 2013) (MULTISHOWHD-1080i-DD5.1-CELOBRAZiL).tsFormat : MPEG-TSFile size : 8.62 GiBDuration : 2h 10mnOverall bit rate mode : VariableOverall bit rate : 9 485 Kbps
VideoID : 4384 (0x1120)Menu ID : 1 (0x1)Format : AVCFormat/Info : Advanced Video CodecFormat profile : [email protected] settings, CABAC : YesFormat settings, ReFrames : 4 framesCodec ID : 27Duration : 2h 10mnBit rate : 8 435 KbpsWidth : 1 920 pixelsHeight : 1 080 pixelsDisplay aspect ratio : 16:9Frame rate : 29.970 fpsColor space : YUVChroma subsampling : 4:2:0Bit depth : 8 bitsScan type : MBAFFBits/(Pixel*Frame) : 0.136Stream size : 7.66 GiB (89%)Color primaries : BT.709Transfer characteristics : BT.709Matrix coefficients : BT.709
Audio #1ID : 4385 (0x1121)Menu ID : 1 (0x1)Format : AC-3Format/Info : Audio Coding 3Mode extension : CM (complete main)Format settings, Endianness : BigCodec ID : 129Duration : 2h 10mnBit rate mode : ConstantBit rate : 384 KbpsChannel(s) : 6 channelsChannel positions : Front: L C R, Side: L R, LFESampling rate : 48.0 KHzBit depth : 16 bitsCompression mode : LossyStream size : 357 MiB (4%)Language : Portuguese
Audio #2ID : 4386 (0x1122)Menu ID : 1 (0x1)Format : MPEG AudioFormat version : Version 1Format profile : Layer 2Codec ID : 3Duration : 2h 10mnBit rate mode : ConstantBit rate : 192 KbpsChannel(s) : 2 channelsSampling rate : 48.0 KHzCompression mode : LossyStream size : 179 MiB (2%)Language : English
Other forum [Profile] [PM]

gueroloco

Longevity: 7 years 6 months

Posts: 10

Торрент-статистика

Post 21-Sep-2013 08:41 (after 1 hour 21 minute)

[Quote]

Спасибо, вчера я не мог закончить, потому что я наблюдал становилось поздно, и я должен был идти на работу рано, теперь я буду иметь возможность наслаждаться тихим
Other forum [Profile] [PM]
Display posts from previous:    
Reply to topic

The time now is: Today 00:57

All times are GMT + 3 Hours



You cannot post new topics in this forum
You cannot reply to topics in this forum
You cannot edit your posts in this forum
You cannot delete your posts in this forum
You cannot vote in polls in this forum
You cannot attach files in this forum
You cannot download files in this forum