Today is a free download without charge Download

Арба (Л. Бабаханов) [1978, Узбекфильм, кукольная анимация, TeleSynch]

Reply to topic
 
Author
Message

Omen ®

Longevity: 7 years 11 months

Posts: 181087

Торрент-статистика

Post 21-Sep-2013 00:20

[Quote]

Арба
Страна: СССР
Жанр: кукольная анимация
Продолжительность: 00:09:22
Год выпуска: 1978
Русские субтитры: нет
Режиссёр: Л. Бабаханов
Описание: Старик ехал на арбе на базар. Дорога пролегала через гору и лошадь начала упираться и отказалась тянуть арбу. Старик всячески пытался заставить лошадь подняться в гору, но так ничего и не смог поделать. И только с помощью доброты и взаимопомощи старику удалось переправиться через гору.
Доп. информация: Фильм оцифрован с киноплёнки 16-мм из личной коллекции. Качество картинки очень низкое, плёнка сильно повреждена, но другого варианта этого мультфильма в сети нет.
Качество: TeleSynch
Формат: MPG
Видео: 720x576 (4:3), 25.000 fps, MPEG-2 Video, ~7453 Kbps, 0.719 bits/pixel
Аудио: 48.0 KHz, AC3, 2 ch (dual mono), 256 Kbps
Субтитры: отсутствуют

Подробные технические данные

GeneralComplete name : Арба (Узбекфильм) 1978.mpgFormat : MPEG-PSFile size : 526 MiBDuration : 9mn 21sOverall bit rate mode : VariableOverall bit rate : 7 865 Kbps
VideoID : 224 (0xE0)Format : MPEG VideoFormat version : Version 2Format profile : [email protected] settings, BVOP : YesFormat settings, Matrix : DefaultFormat settings, GOP : N=12Duration : 9mn 21sBit rate mode : VariableBit rate : 7 500 KbpsWidth : 720 pixelsHeight : 576 pixelsDisplay aspect ratio : 4:3Frame rate : 25.000 fpsStandard : PALColor space : YUVChroma subsampling : 4:2:0Bit depth : 8 bitsScan type : InterlacedScan order : Top Field FirstCompression mode : LossyBits/(Pixel*Frame) : 0.723Time code of first frame : 00:00:00:00Time code source : Group of pictures headerStream size : 499 MiB (95%)Color primaries : BT.601 PALTransfer characteristics : BT.470 System B, BT.470 System GMatrix coefficients : BT.601
AudioID : 189 (0xBD)-128 (0x80)Format : AC-3Format/Info : Audio Coding 3Mode extension : CM (complete main)Format settings, Endianness : BigMuxing mode : DVD-VideoDuration : 9mn 21sBit rate mode : ConstantBit rate : 256 KbpsChannel(s) : 2 channelsChannel positions : Front: L RSampling rate : 48.0 KHzBit depth : 16 bitsCompression mode : LossyStream size : 17.1 MiB (3%)

Скриншоты

Other forum [Profile] [PM]
Display posts from previous:    
Reply to topic

The time now is: Today 03:23

All times are GMT + 3 Hours



You cannot post new topics in this forum
You cannot reply to topics in this forum
You cannot edit your posts in this forum
You cannot delete your posts in this forum
You cannot vote in polls in this forum
You cannot attach files in this forum
You cannot download files in this forum