Today is a free download without charge Download

Discovery: История мира. Серия №7 / History of the World (2012) SATRip

Reply to topic
 
Author
Message

UndegraundMen ®

Longevity: 7 years 7 months

Posts: 25145

Торрент-статистика

Post 20-Sep-2013 23:00

[Quote]

Discovery: История мира. Серия №7 / History of the World (2012) SATRip - Режиссер / Телекомпания: Discovery
Русское название: История мира
Оригинальное название: History of the World
Год выпуска: 2012
Жанр: Документальный, научно-популярный сериал
Выпущено: Великобритания, BBC, Discovery Channel, Open University
Описание:
Эндрю Марр (Andrew Marr) отправляется в невероятное путешествие по 70 000 летней истории человека . Использование реконструкции событий, документальных съемок по всему миру и передовой компьютерной графики, он раскрывает решающие моменты, которые повлияли на мир - в котором мы живем сегодня ...
Режиссёр: Нил Роулз
В выпуске: 07. Навстречу прогрессу. Индустриальный бум / Age of Industry
Озвучено: СВ Дубль
Перевод: Профессиональный двухголосый
Продолжительность: ~ 00:46:50
Видеокодек: XVID
Битрейт видео: ~1900 kb/s
Размер кадра: 720 x 400
Качество видео: SATRip
Аудиокодек: AC-3, 2ch.
Битрейт аудио: 192 kb/s

MediaInfo

Формат : AVI
Формат/Информация : Audio Video Interleave
Размер файла : 704 Мбайт
Продолжительность : 46 м.
Общий поток : 2102 Кбит/сек
Программа кодирования : VirtualDubMod 1.5.10.3 | www.virtualdub-fr.org || (build 2550/release)
Библиотека кодирования : VirtualDubMod build 2550/release
Видео
Идентификатор : 0
Формат : MPEG-4 Visual
Профиль формата : Advanced [email protected]
Параметр BVOP формата : 2
Параметр QPel формата : Нет
Параметр GMC формата : Без точки перехода
Параметр матрицы формата : Default (H.263)
Идентификатор кодека : XVID
Идентификатор кодека/Подсказка : XviD
Продолжительность : 46 м.
Битрейт : 1900 Кбит/сек
Ширина : 720 пикселей
Высота : 400 пикселей
Соотношение сторон : 16:9
Частота кадров : 25,000 кадров/сек
Цветовое пространство : YUV
Субдискретизация насыщенности : 4:2:0
Битовая глубина : 8 бит
Тип развёртки : Прогрессивная
Метод сжатия : С потерями
Бит/(Пиксели*Кадры) : 0.264
Размер потока : 637 Мбайт (90%)
Библиотека кодирования : XviD 1.2.1 (UTC 2008-12-04)
Аудио
Идентификатор : 1
Формат : AC-3
Формат/Информация : Audio Coding 3
Расширение режима : CM (complete main)
Идентификатор кодека : 2000
Продолжительность : 46 м.
Вид битрейта : Постоянный
Битрейт : 192 Кбит/сек
Каналы : 2 канала
Расположение каналов : Front: L R
Частота : 48,0 КГц
Битовая глубина : 16 бит
Метод сжатия : С потерями
Размер потока : 64,3 Мбайт (9%)
Выравнивание : Разделение по промежуткам
Продолжительность промежутка : 40 мс. (1,00 видеокадр)
Время предзагрузки промежутка : 500 мс.
Скриншоты:          Время раздачи: 24/7. До первых 5 скачавших.
Rip by skorpionN
Other forum [Profile] [PM]
Display posts from previous:    
Reply to topic

The time now is: Today 03:11

All times are GMT + 3 Hours



You cannot post new topics in this forum
You cannot reply to topics in this forum
You cannot edit your posts in this forum
You cannot delete your posts in this forum
You cannot vote in polls in this forum
You cannot attach files in this forum
You cannot download files in this forum