Today is a free download without charge Download

Discovery: Северная Америка. Серия №6 / North America (2013) SATRip

Reply to topic
 
Author
Message

UndegraundMen ®

Longevity: 7 years 7 months

Posts: 25145

Торрент-статистика

Post 20-Sep-2013 23:00

[Quote]

Discovery: Северная Америка. Серия №6 / North America (2013) SATRip - Режиссер / Телекомпания: Discovery
Русское название: Северная Америка
Оригинальное название: North America
Год выпуска: 2013
Жанр: Документальный, научно-познавательный, путешествие
Выпущено: США, Великобритания, Discovery Channel, Silverback Films
Описание:
Первая самостоятельно подготовленная естественнонаучная программа Discovery «Северная Америка» - это результат путешествий по континенту в течение трех лет от ледяной Аляски до пышных лесов Белиза, от покрытых снегами Скалистых гор до пустынь юго-запада Америки. Она рассказывает о том, что закон «выживает сильнейший» царит на этом огромном континенте посреди опасных территорий и сурового климата.
Режиссёр: Джеймс Мэнфулл, Сара Касс, Макс Саломон
В выпуске: 06. Тайны Дикой природы / Revealed
Текст читал: Давид Петросян
Озвучено: Студия Кириллица
Перевод: Одноголосый закадровый
Продолжительность: ~ 00:43:49
Видеокодек: XVID
Битрейт видео: ~1950 kb/s
Размер кадра: 720 x 400
Качество видео: SATRip
Аудиокодек: AC-3, 2ch.
Битрейт аудио: 192 kb/s

MediaInfo

Формат : AVI
Формат/Информация : Audio Video Interleave
Размер файла : 674 Мбайт
Продолжительность : 43 м.
Общий поток : 2151 Кбит/сек
Программа кодирования : VirtualDubMod 1.5.10.3 | www.virtualdub-fr.org || (build 2550/release)
Библиотека кодирования : VirtualDubMod build 2550/release
Видео
Идентификатор : 0
Формат : MPEG-4 Visual
Профиль формата : Advanced [email protected]
Параметр BVOP формата : 2
Параметр QPel формата : Нет
Параметр GMC формата : Без точки перехода
Параметр матрицы формата : Default (H.263)
Идентификатор кодека : XVID
Идентификатор кодека/Подсказка : XviD
Продолжительность : 43 м.
Битрейт : 1950 Кбит/сек
Ширина : 720 пикселей
Высота : 400 пикселей
Соотношение сторон : 16:9
Частота кадров : 25,000 кадров/сек
Цветовое пространство : YUV
Субдискретизация насыщенности : 4:2:0
Битовая глубина : 8 бит
Тип развёртки : Прогрессивная
Метод сжатия : С потерями
Бит/(Пиксели*Кадры) : 0.271
Размер потока : 611 Мбайт (91%)
Библиотека кодирования : XviD 1.2.1 (UTC 2008-12-04)
Аудио
Идентификатор : 1
Формат : AC-3
Формат/Информация : Audio Coding 3
Расширение режима : CM (complete main)
Идентификатор кодека : 2000
Продолжительность : 43 м.
Вид битрейта : Постоянный
Битрейт : 192 Кбит/сек
Каналы : 2 канала
Расположение каналов : Front: L R
Частота : 48,0 КГц
Битовая глубина : 16 бит
Метод сжатия : С потерями
Размер потока : 60,2 Мбайт (9%)
Выравнивание : Разделение по промежуткам
Продолжительность промежутка : 40 мс. (1,00 видеокадр)
Время предзагрузки промежутка : 500 мс.
Скриншоты:          Время раздачи: 24/7. До первых 5 скачавших.
Rip by skorpionN
Other forum [Profile] [PM]
Display posts from previous:    
Reply to topic

The time now is: Today 11:12

All times are GMT + 3 Hours



You cannot post new topics in this forum
You cannot reply to topics in this forum
You cannot edit your posts in this forum
You cannot delete your posts in this forum
You cannot vote in polls in this forum
You cannot attach files in this forum
You cannot download files in this forum