Today is a free download without charge Download

Liars - Live At Pitchfork Paris Festival [2012, experimental, indie rock, industrial, HDTV 1080р]

Reply to topic
 
Author
Message

Omen ®

Longevity: 8 years 4 months

Posts: 181087

Торрент-статистика

Post 20-Sep-2013 20:05

[Quote]

Liars - Live At Pitchfork Paris Festival
Жанр: experimental, indie rock, industrial
Продолжительность: 00:37:49
Год выпуска: 2012
Описание:
Liars - Live At Pitchfork Paris Festival, November 2012
Треклист:
1. Vox Tuned D.E.D.
2. Brats
3. Let's Not Wrestle Mt. Heart Attack
4. Scarecrows On A Killer Slant
5. Flood To Flood
6. No One Against The Rush
7. Plaster Casts of Everything
8. Broken Witch
Качество: HDTVRip 1080p
Контейнер: MKV
Видео кодек: H.264
Аудио кодек: AC3
Видео: Видео: 1920x1080 (16:9), 25.00 fps, AVC, MKV, 8178 Кбит, 0.158 bits/pixel
Аудио: Аудио: 48.0 KHz, AC3, 2 ch, 192 Kbps

Отчёт MediaInfo

Полное имя : G:\DVD\Liars (2012)\Liars - Live At Pitchfork Paris Festival.mkvФормат : MatroskaРазмер файла : 2,26 ГбайтПродолжительность : 37 м.Общий поток : 8540 Кбит/секПрограмма кодирования : Lavf51.12.1Библиотека кодирования : Lavf51.12.1
ВидеоИдентификатор : 1Формат : AVCФормат/Информация : Advanced Video CodecПрофиль формата : [email protected]Параметр CABAC формата : НетПараметр ReFrames формата : 1 кадрПараметр GOP формата : M=1, N=12Идентификатор кодека : V_MPEG4/ISO/AVCПродолжительность : 37 м.Вид битрейта : ПеременныйБитрейт : 8178 Кбит/секМаксимальный битрейт : 12,0 Мбит/секШирина : 1920 пикселейВысота : 1080 пикселейСоотношение сторон : 16:9Частота кадров : 25,000 кадров/секЧастота кадров в оригинале : 24,000 кадра/секЦветовое пространство : YUVСубдискретизация насыщенности : 4:2:0Битовая глубина : 8 битТип развёртки : ПрогрессивнаяБит/(Пиксели*Кадры) : 0.158Размер потока : 2,16 Гбайт (96%)Язык : English / English
АудиоИдентификатор : 2Формат : AC-3Формат/Информация : Audio Coding 3Расширение режима : CM (complete main)Идентификатор кодека : A_AC3Продолжительность : 37 м.Вид битрейта : ПостоянныйБитрейт : 192 Кбит/секКаналы : 2 каналаРасположение каналов : Front: L RЧастота : 48,0 КГцБитовая глубина : 16 битМетод сжатия : С потерямиРазмер потока : 52,0 Мбайт (2%)Язык : English / English
Other forum [Profile] [PM]
Display posts from previous:    
Reply to topic

The time now is: Today 17:37

All times are GMT + 3 Hours



You cannot post new topics in this forum
You cannot reply to topics in this forum
You cannot edit your posts in this forum
You cannot delete your posts in this forum
You cannot vote in polls in this forum
You cannot attach files in this forum
You cannot download files in this forum