Today is a free download without charge Download

Sting - And Yet (Live,Canal+HD,19.09.2013) [2013, rock,jazz, HDTV 1080i]

Reply to topic
 
Author
Message

Omen ®

Longevity: 8 years 4 months

Posts: 181087

Торрент-статистика

Post 20-Sep-2013 00:50

[Quote]

Sting - And Yet (Live,Canal+HD,19.09.2013)- Жанр: rock,jazz
Продолжительность: 00:04:21
Год выпуска: 2013
Качество: HDTV 1080i
Контейнер: TS
Видео кодек: H.264
Аудио кодек: AC3
Видео: H.264; 1920x1080; 7 918 Kbps ; 25.000 fps
Аудио: AC-3; 192 Kbps; 48,0 КГц; 2 ch

MediaInfo

Complete name : Sting - And Yet (C+).tsFormat : MPEG-TSFile size : 266 MiBDuration : 4mn 21sOverall bit rate mode : VariableOverall bit rate : 8 534 Kbps
VideoID : 160 (0xA0)Menu ID : 8801 (0x2261)Format : AVCFormat/Info : Advanced Video CodecFormat profile : [email protected] settings, CABAC : YesFormat settings, ReFrames : 4 framesFormat settings, GOP : M=4, N=24Codec ID : 27Duration : 4mn 21sBit rate : 7 918 KbpsWidth : 1 920 pixelsHeight : 1 080 pixelsDisplay aspect ratio : 16:9Frame rate : 25.000 fpsColor space : YUVChroma subsampling : 4:2:0Bit depth : 8 bitsScan type : MBAFFBits/(Pixel*Frame) : 0.153Stream size : 247 MiB (93%)Color primaries : BT.709Transfer characteristics : BT.709Matrix coefficients : BT.709
AudioID : 82 (0x52)Menu ID : 8801 (0x2261)Format : AC-3Format/Info : Audio Coding 3Mode extension : CM (complete main)Format settings, Endianness : BigCodec ID : 6Duration : 4mn 21sBit rate mode : ConstantBit rate : 192 KbpsChannel(s) : 2 channelsChannel positions : Front: L RSampling rate : 48.0 KHzBit depth : 16 bitsCompression mode : LossyDelay relative to video : 19msStream size : 5.98 MiB (2%)Language : French

Скриншоты

Other forum [Profile] [PM]
Display posts from previous:    
Reply to topic

The time now is: Today 10:34

All times are GMT + 3 Hours



You cannot post new topics in this forum
You cannot reply to topics in this forum
You cannot edit your posts in this forum
You cannot delete your posts in this forum
You cannot vote in polls in this forum
You cannot attach files in this forum
You cannot download files in this forum