Today is a free download without charge Download

Bryan Adams: The Bare Bones Tour - Live at Sydney Opera House (2011) [2013, Soft Rock, BDRip 720p]

Reply to topic
 
Author
Message

Omen ®

Longevity: 8 years 3 months

Posts: 181087

Торрент-статистика

Post 20-Sep-2013 00:50

[Quote]

Bryan Adams: The Bare Bones Tour
Live at Sydney Opera House (2011)- Жанр: Soft Rock
Продолжительность: 01:43:24
Год выпуска: 2013-Описание: The Canadian pop rock singer captured live in performance at Sydney Opera House in 2011. The concert was part of Adams' 'Bare Bones' tour and saw him play hits including 'Run to You', 'Let's Make a Night to Remember', 'Summer of '69', 'The Only Thing That Looks Good On Me Is You' and 'Have You Ever Really Loved A Women'.
Australia boasts a particularly strong, ludicrously disproportionate affinity with Bryan Adams. Per capita - our fair nation's obsession with his songs consistently shines through in chart positions, sales and radio airplay.
Треклист:
01. Run To You
02. Back to You
03. Here I Am
04. I’m Ready
05. This Time
06. Flying
07. Let’s Make A Night to Remember
08. Can’t Stop This Thing We Started
09. Waiting on the 49
10. In The Heat Of The Night
11. (Everything I Do) I Do It For You
12. Cut’s Like A Knife
13. Please Forgive Me
14. Tonight In Babylon
15. Summer of 69
16. Walk On By
17. Heaven
18. The Right Place
19. The Only Thing That Looks Good
20. Somebody
21. You've Been A Friend To Me
22. When You're Gone
23. Have You Ever Really Loved A Woman
24. I Still Miss You A Little Bit
25. Straight From The Heart-Качество: BDRip 720p
Контейнер: MKV
Видео кодек: H.264
Аудио кодек: DTS
Видео: 1280*720 (16:9), 3899 Kbps, 29.970 fps
Аудио: DTS, 1509 Kbps, 48.0 KHz, 5.1 ch
Аудио 2: AC3, 640 Kbps, 48.0 KHz, 2.0 ch

Отчёт MediaInfo / BDInfo

Код:
General
Unique ID                                : 180016784457557458760431975835539244122 (0x876DF8B8ACB4BB02A370EC1A84FE845A)
Complete name                            : D:\Bryan Adams Live at Sydney Opera House 2011.BDRip.720p.DTS.mkv
Format                                   : Matroska
Format version                           : Version 4 / Version 2
File size                                : 4.46 GiB
Duration                                 : 1h 43mn
Overall bit rate                         : 6 171 Kbps
Movie name                               : Bryan Adams Live at Sydney Opera House 2011
Encoded date                             : UTC 2013-09-19 07:27:16
Writing application                      : mkvmerge v6.1.0 ('Old Devil') built on Mar  2 2013 14:32:37
Writing library                          : libebml v1.3.0 + libmatroska v1.4.0
Video
ID                                       : 1
Format                                   : AVC
Format/Info                              : Advanced Video Codec
Format profile                           : [email protected]
Format settings, CABAC                   : Yes
Format settings, ReFrames                : 9 frames
Codec ID                                 : V_MPEG4/ISO/AVC
Duration                                 : 1h 43mn
Bit rate                                 : 3 899 Kbps
Width                                    : 1 280 pixels
Height                                   : 720 pixels
Display aspect ratio                     : 16:9
Frame rate mode                          : Constant
Frame rate                               : 29.970 fps
Color space                              : YUV
Chroma subsampling                       : 4:2:0
Bit depth                                : 8 bits
Scan type                                : Progressive
Bits/(Pixel*Frame)                       : 0.141
Stream size                              : 2.82 GiB (63%)
Writing library                          : x264 core 133 r2334 a3ac64b
Encoding settings                        : cabac=1 / ref=9 / deblock=1:-3:-3 / analyse=0x3:0x133 / me=umh / subme=9 / psy=1 / psy_rd=1.00:0.15 / mixed_ref=1 / me_range=24 / chroma_me=1 / trellis=2 / 8x8dct=1 / cqm=0 / deadzone=21,11 / fast_pskip=0 / chroma_qp_offset=-3 / threads=12 / lookahead_threads=1 / sliced_threads=0 / nr=0 / decimate=1 / interlaced=0 / bluray_compat=0 / constrained_intra=0 / bframes=6 / b_pyramid=2 / b_adapt=2 / b_bias=0 / direct=1 / weightb=1 / open_gop=0 / weightp=2 / keyint=250 / keyint_min=25 / scenecut=40 / intra_refresh=0 / rc=crf / mbtree=0 / crf=18.0 / qcomp=0.60 / qpmin=0 / qpmax=69 / qpstep=4 / ip_ratio=1.40 / pb_ratio=1.30 / aq=2:0.90
Language                                 : English
Default                                  : Yes
Forced                                   : No
Color primaries                          : BT.709
Transfer characteristics                 : BT.709
Matrix coefficients                      : BT.709
Audio #1
ID                                       : 2
Format                                   : DTS
Format/Info                              : Digital Theater Systems
Mode                                     : 16
Format settings, Endianness              : Big
Codec ID                                 : A_DTS
Duration                                 : 1h 43mn
Bit rate mode                            : Constant
Bit rate                                 : 1 509 Kbps
Channel count                            : 6 channels
Channel positions                        : Front: L C R, Side: L R, LFE
Sampling rate                            : 48.0 KHz
Bit depth                                : 24 bits
Compression mode                         : Lossy
Stream size                              : 1.09 GiB (24%)
Title                                    : DTS 1509 Kbps 5.1
Language                                 : English
Default                                  : Yes
Forced                                   : No
Audio #2
ID                                       : 3
Format                                   : AC-3
Format/Info                              : Audio Coding 3
Mode extension                           : CM (complete main)
Format settings, Endianness              : Big
Codec ID                                 : A_AC3
Duration                                 : 1h 43mn
Bit rate mode                            : Constant
Bit rate                                 : 640 Kbps
Channel count                            : 2 channels
Channel positions                        : Front: L R
Sampling rate                            : 48.0 KHz
Bit depth                                : 16 bits
Compression mode                         : Lossy
Stream size                              : 473 MiB (10%)
Title                                    : AC3 640 Kbps 2.0
Language                                 : English
Default                                  : No
Forced                                   : No
Menu
00:00:00.000                             : en:Introduction
00:01:27.087                             : en:Run to you
00:04:58.298                             : en:Back to you
00:09:51.591                             : en:Here I am
00:14:31.871                             : en:I'm ready
00:18:57.403                             : en:This time
00:22:13.332                             : en:Flying
00:25:49.681                             : en:Let's make a night to remember
00:30:14.813                             : en:Can't stop this thing we started
00:33:54.032                             : en:Waiting on the '49
00:37:19.237                             : en:In the heat of the night
00:41:48.639                             : en:(Everything i do) I do it for you
00:47:32.850                             : en:Cuts like a knife
00:52:48.465                             : en:Please forgive me
00:56:58.415                             : en:Tonight in Babylon
01:00:26.623                             : en:Summer of '69
01:04:10.847                             : en:Walk on by
01:07:56.072                             : en:Heaven
01:13:27.403                             : en:The right place
01:16:40.596                             : en:The only thing that looks good on me is you
01:19:56.792                             : en:Somebody
01:23:15.991                             : en:You've been a friend to me
01:26:28.183                             : en:When you're gone
01:29:44.379                             : en:Have you ever really loved a woman?
01:34:55.690                             : en:I still miss you... a little bit
01:38:25.900                             : en:Straight from the heart

Скриншоты

Other forum [Profile] [PM]
Display posts from previous:    
Reply to topic

The time now is: Today 08:17

All times are GMT + 3 Hours



You cannot post new topics in this forum
You cannot reply to topics in this forum
You cannot edit your posts in this forum
You cannot delete your posts in this forum
You cannot vote in polls in this forum
You cannot attach files in this forum
You cannot download files in this forum